<?xml version="1.0" encoding="UTF-8" standalone="no"?>
<!DOCTYPE svg PUBLIC "-//W3C//DTD SVG 1.1//EN" "http://www.w3.org/Graphics/SVG/1.1/DTD/svg11.dtd">
<svg xmlns="http://www.w3.org/2000/svg">
<metadata>
Created by FontForge 20100429 at Fri Mar  8 12:06:15 2013
 By root
Copyright (C) 2012 by original authors @ fontello.com
</metadata>
<defs>
<font id="fontello" horiz-adv-x="1030">
  <font-face font-family="fontello" font-weight="500" font-stretch="normal" units-per-em="1000" panose-1="2 0 6 3 0 0 0 0 0 0" ascent="850" descent="-150" bbox="14.0606 -150.5 1019.01 852.48" underline-thickness="50" underline-position="-100" unicode-range="U+002B-1F6AB"/>
<missing-glyph horiz-adv-x="364" d="M33 0v666h265v-666h-265zM66 33h199v600h-199v-600z"/>
    <glyph glyph-name=".notdef" horiz-adv-x="364" d="M33 0v666h265v-666h-265zM66 33h199v600h-199v-600z"/>
    <glyph glyph-name=".null" horiz-adv-x="0"/>
    <glyph glyph-name="nonmarkingreturn" horiz-adv-x="333"/>
    <glyph glyph-name="plus" unicode="+" horiz-adv-x="610" d="M565 400q30 0 30 -50t-30 -50h-210v-210q0 -30 -50 -30t-50 30v210h-210q-30 0 -30 50t30 50h210v210q0 30 50 30t50 -30v-210h210z"/>
    <glyph glyph-name="hyphen" unicode="-" horiz-adv-x="610" d="M565 400q30 0 30 -50t-30 -50h-520q-30 0 -30 50t30 50h520z"/>
    <glyph glyph-name="uni2139" unicode="ℹ" horiz-adv-x="490" d="M367 850q46 0 73 -26t27 -70q0 -51 -40 -88.5t-94 -37.5q-47 0 -73.5 25.5t-24.5 72.5q0 45 35 85q34 39 97 39zM161 -150q-100 0 -54 178l60 254q14 56 0 56q-12 0 -54 -18q-40 -17 -72 -38l-26 44q90 78 189 126t151 48q78 0 36 -162l-70 -266q-16 -64 6 -64 q45 0 118 60l30 -40q-84 -86 -175 -132t-139 -46z"/>
    <glyph glyph-name="arrowleft" unicode="←" horiz-adv-x="1010" d="M255 100l-240 250l240 250v-160h740v-178h-740v-162z"/>
    <glyph glyph-name="arrowup" unicode="↑" horiz-adv-x="530" d="M515 602h-162v-742h-176v742h-162l250 238z"/>
    <glyph glyph-name="arrowright" unicode="→" horiz-adv-x="1010" d="M757 100v162h-742v178h742v160l238 -250z"/>
    <glyph glyph-name="arrowdown" unicode="↓" horiz-adv-x="530" d="M515 100l-250 -240l-250 240h162v740h176v-740h162z"/>
    <glyph glyph-name="uni21B0" unicode="↰" horiz-adv-x="880" d="M215 350v-90l-200 160l200 170v-100h550q41 0 70.5 -29.5t29.5 -70.5v-280h-140v240h-510z"/>
    <glyph glyph-name="uni21B3" unicode="↳" horiz-adv-x="774" d="M115 200q-41 0 -70.5 29.5t-29.5 70.5v350h140v-310h364v150l240 -220l-240 -220v150h-404z"/>
    <glyph glyph-name="uni21C6" unicode="⇆" d="M715 452h-500v-90l-200 160l200 170v-100h500v-140zM1015 172l-200 -160v90h-500v140h500v100z"/>
    <glyph glyph-name="infinity" unicode="∞" d="M515 426q54 61 132 102.5t164 41.5q83 0 144 -53q60 -53 60 -167q0 -112 -60 -166t-144 -54q-86 0 -163 42t-133 104q-54 -61 -131.5 -103.5t-162.5 -42.5q-86 0 -146 54t-60 166q0 114 60 167q61 53 146 53q86 0 163.5 -41.5t130.5 -102.5zM461 350q-42 53 -106.5 92.5 t-133.5 39.5q-114 0 -114 -132t114 -132q68 0 133.5 40t106.5 92zM811 218q114 0 114 132t-114 132q-69 0 -134.5 -39.5t-105.5 -92.5q40 -53 105.5 -92.5t134.5 -39.5z"/>
    <glyph glyph-name="uni229E" unicode="⊞" horiz-adv-x="830" d="M715 750q42 0 71 -29t29 -71v-600q0 -41 -29.5 -70.5t-70.5 -29.5h-600q-40 0 -70 30t-30 70v600q0 41 29.5 70.5t70.5 29.5h600zM665 300v100h-200v200h-100v-200h-200v-100h200v-200h100v200h200z"/>
    <glyph glyph-name="uni229F" unicode="⊟" horiz-adv-x="830" d="M715 750q42 0 71 -29t29 -71v-600q0 -41 -29.5 -70.5t-70.5 -29.5h-600q-40 0 -70 30t-30 70v600q0 41 29.5 70.5t70.5 29.5h600zM665 300v100h-500v-100h500z"/>
    <glyph glyph-name="house" unicode="⌂" horiz-adv-x="930" d="M903 336q15 -15 11 -26.5t-27 -11.5h-84v-310q0 -22 -6 -31t-26 -9h-204v310h-204v-310h-194q-25 0 -33.5 8t-8.5 32v310h-84q-23 0 -27 11.5t11 26.5l400 402q16 16 38 16t38 -16z"/>
    <glyph glyph-name="uni2328" unicode="⌨" d="M945 650q28 0 49 -21t21 -49v-460q0 -29 -20.5 -49.5t-49.5 -20.5h-860q-29 0 -49.5 20.5t-20.5 49.5v460q0 28 21 49t49 21h860zM565 450h100v100h-100v-100zM615 400v-100h100v100h-100zM415 450h100v100h-100v-100zM465 400v-100h100v100h-100zM265 450h100v100h-100 v-100zM315 400v-100h100v100h-100zM115 450h100v100h-100v-100zM165 400v-100h100v100h-100zM215 250h-100v-100h100v100zM765 250h-500v-100h500v100zM915 250h-100v-100h100v100zM865 300v100h-100v-100h100zM915 450v100h-200v-100h200z"/>
    <glyph glyph-name="uni232B" unicode="⌫" horiz-adv-x="1032" d="M917 700q42 0 71 -29t29 -71v-500q0 -41 -29.5 -70.5t-70.5 -29.5h-478q-39 0 -70 28l-340 296q-29 26 0 54l340 296q31 26 70 26h478zM777 150l72 74l-128 126l128 128l-72 72l-128 -126l-128 126l-72 -72l128 -128l-128 -126l72 -74l128 128z"/>
    <glyph glyph-name="uni2389" unicode="⎉" horiz-adv-x="560" d="M545 636v-570q0 -66 -90 -66t-90 66v570q0 64 90 64t90 -64zM105 700q90 0 90 -64v-570q0 -66 -90 -66t-90 66v570q0 64 90 64z"/>
    <glyph glyph-name="uni23E9" unicode="⏩" horiz-adv-x="910" d="M881 374q14 -11 14 -24q0 -14 -14 -22l-372 -248q-23 -14 -37.5 -5.5t-14.5 35.5v482q0 27 14.5 35.5t37.5 -5.5zM427 374q14 -11 14 -24q0 -14 -14 -22l-360 -248q-22 -15 -37 -5.5t-15 35.5v482q0 26 15 35.5t37 -5.5z"/>
    <glyph glyph-name="uni23EA" unicode="⏪" horiz-adv-x="910" d="M29 374l374 248q22 15 37 5.5t15 -35.5v-482q0 -26 -15 -35.5t-37 5.5l-374 248q-14 8 -14 22q0 13 14 24zM469 350q0 13 14 24l360 248q22 15 37 5.5t15 -35.5v-482q0 -26 -15 -35.5t-37 5.5l-360 248q-14 8 -14 22z"/>
    <glyph glyph-name="uni23ED" unicode="⏭" horiz-adv-x="630" d="M427 374q14 -11 14 -24q0 -11 -14 -22l-362 -228q-23 -14 -36.5 -4.5t-13.5 34.5v442q0 25 13.5 34.5t36.5 -4.5zM541 642q74 0 74 -58v-466q0 -58 -74 -58q-76 0 -76 58v466q0 58 76 58z"/>
    <glyph glyph-name="uni23EE" unicode="⏮" horiz-adv-x="630" d="M203 374l364 228q22 14 35 4.5t13 -34.5v-442q0 -25 -13 -34.5t-35 4.5l-364 228q-14 11 -14 22q0 13 14 24zM15 584q0 58 76 58q74 0 74 -58v-466q0 -58 -74 -58q-76 0 -76 58v466z"/>
    <glyph glyph-name="uni23F3" unicode="⏳" horiz-adv-x="590" d="M527 526q-51 -56 -97 -99q-49 -46 -49 -77q0 -30 49 -76t97 -97t48 -97v-118q0 -34 -86 -73q-85 -39 -194 -39t-194 39q-86 39 -86 73v118q0 46 48 97t97 97t49 76q0 31 -49 77q-46 43 -97 99q-48 52 -48 96v118q0 32 87 71t193 39t193 -39t87 -71v-118q0 -44 -48 -96z M75 720q-4 -7 4 -14q91 -52 216 -52q131 0 220 50q14 11 -16 30q-96 54 -202 54q-120 0 -204 -54zM321 350q0 38 22 66q20 26 51 56l29 28q92 92 92 122l2 50q-101 -54 -222 -54t-222 54l4 -50q0 -32 90 -122q3 -4 22.5 -22t22.5 -21l19 -19q2 -3 5.5 -7t11 -13.5t11 -15 t0.5 -5.5q-6 1 2 -12q17 -29 15 -33q-1 -2 -5 -2q0 -24 -7 -37q-18 -32 -19 -33l-12 -15l-31 -31l-35 -32q-90 -90 -90 -122v-66q4 2 66 23q58 19 92 43t34 58q0 30 26 30t26 -30q0 -34 33 -58q32 -23 94 -43q63 -20 67 -23v66q0 30 -92 122l-28 28l-33 32q-17 17 -30 42 q-11 19 -11 46z"/>
    <glyph glyph-name="filledbox" unicode="■" horiz-adv-x="630" d="M541 650q74 0 74 -64v-470q0 -66 -74 -66h-450q-76 0 -76 66v470q0 36 18 50t58 14h450z"/>
    <glyph glyph-name="uni25B4" unicode="▴" horiz-adv-x="490" d="M15 150l230 400l230 -400h-460z"/>
    <glyph glyph-name="uni25B6" unicode="▶" horiz-adv-x="530" d="M501 376q14 -11 14 -26q0 -13 -14 -24l-428 -266q-25 -16 -41.5 -5.5t-16.5 39.5v514q0 29 16.5 39.5t41.5 -5.5z"/>
    <glyph glyph-name="uni25B8" unicode="▸" horiz-adv-x="430" d="M15 580l400 -230l-400 -230v460z"/>
    <glyph glyph-name="uni25BE" unicode="▾" horiz-adv-x="490" d="M475 550l-230 -400l-230 400h460z"/>
    <glyph glyph-name="uni25C2" unicode="◂" horiz-adv-x="430" d="M415 580v-460l-400 230z"/>
    <glyph glyph-name="uni25D1" unicode="◑" d="M965 390q19 0 34.5 -11.5t15.5 -28.5q0 -40 -50 -40h-48q-50 0 -50 40q0 17 15.5 28.5t34.5 11.5h48zM710 544q81 -80 81 -194q0 -116 -81 -196q-82 -80 -195 -80q-114 0 -194 80t-80 196q0 114 80 194t194 80q113 0 195 -80zM521 550q-85 0 -146 -59q-60 -59 -60 -141 q0 -84 60.5 -142t145.5 -58v400zM115 390q19 0 34.5 -11.5t15.5 -28.5q0 -40 -50 -40h-50q-50 0 -50 40q0 17 15.5 28.5t34.5 11.5h50zM515 700q-17 0 -28.5 15.5t-11.5 34.5v50q0 19 11.5 34.5t28.5 15.5t28.5 -15.5t11.5 -34.5v-50q0 -19 -11.5 -34.5t-28.5 -15.5zM515 0 q17 0 28.5 -15.5t11.5 -34.5v-50q0 -19 -11.5 -34.5t-28.5 -15.5t-28.5 15.5t-11.5 34.5v50q0 19 11.5 34.5t28.5 15.5zM849 626q-34 -34 -64 -8q-28 28 8 64q6 8 34 36q36 34 64 6t-8 -64zM183 72q12 14 30 17.5t32 -9.5q12 -15 9.5 -33t-15.5 -31l-36 -36q-13 -13 -31 -16 t-31 10q-30 28 6 64q8 6 36 34zM239 682q36 -36 6 -64q-14 -11 -32 -7.5t-30 15.5q-28 28 -36 34q-13 13 -15.5 31t9.5 33q13 13 31 10t31 -16zM793 16q-36 36 -8 64t64 -8l34 -34q36 -36 8 -64t-64 6q-28 28 -34 36z"/>
    <glyph glyph-name="uni2601" unicode="☁" d="M775 494q99 0 170 -68q70 -67 70 -166t-70 -166q-71 -68 -170 -68h-578q-73 0 -127.5 52t-54.5 124q0 74 53.5 126t128.5 52q1 0 10 -1t10 -1q-2 16 -2 38q0 108 78 184q77 76 188 76q92 0 161.5 -53.5t92.5 -132.5q25 4 40 4z"/>
    <glyph glyph-name="uni2605" unicode="★" horiz-adv-x="910" d="M455 790l120 -336h320l-262 -196l94 -348l-272 208l-272 -208l94 348l-262 196h320z"/>
    <glyph glyph-name="uni2606" unicode="☆" horiz-adv-x="910" d="M633 258l94 -348l-272 208l-272 -208l94 348l-262 196h320l120 336l120 -336h320zM455 216l150 -124l-62 178l144 114l-176 -4l-56 202l-54 -202l-176 4l142 -114l-62 -178z"/>
    <glyph glyph-name="uni2615" unicode="☕" horiz-adv-x="711" d="M604 719q49 -20 71.5 -42t19.5 -45l-72 -594q-1 -13 -34 -36q-36 -25 -104 -43.5t-130 -18.5t-128 18.5t-105 43.5q-34 23 -35 36l-72 594q-5 28 36 57q46 33 129.5 52t174.5 19q150 0 249 -41zM355 544q62 0 129.5 14t105.5 34q33 18 33 30t-33 29q-39 20 -106 33.5 t-129 13.5t-129 -13.5t-106 -33.5q-33 -17 -33 -29t33 -30q38 -20 105.5 -34t129.5 -14z"/>
    <glyph glyph-name="uni2630" unicode="☰" horiz-adv-x="730" d="M665 400q21 0 35.5 -15t14.5 -35t-15.5 -35t-34.5 -15h-600q-19 0 -34.5 15t-15.5 35t14.5 35t35.5 15h600zM65 500q-19 0 -34.5 15t-15.5 35t14.5 35t35.5 15h600q21 0 35.5 -15t14.5 -35t-15.5 -35t-34.5 -15h-600zM665 200q21 0 35.5 -15t14.5 -35t-15.5 -35 t-34.5 -15h-600q-19 0 -34.5 15t-15.5 35t14.5 35t35.5 15h600z"/>
    <glyph glyph-name="uni263D" unicode="☽" horiz-adv-x="850" d="M539 238q105 105 125 252q19 145 -53 270q53 -26 96 -72q128 -128 128 -309t-128 -309t-310 -128t-310 128q-41 41 -72 94q124 -70 271 -51q148 20 253 125z"/>
    <glyph glyph-name="uni2661" unicode="♡" horiz-adv-x="890" d="M875 486q0 -92 -70 -156l-360 -330l-360 330q-70 64 -70 156t70 156q64 58 152 58q89 0 150 -58l58 -52l56 52q64 58 152 58t152 -58q70 -64 70 -156zM751 382q42 40 42 104q0 65 -38 100q-38 38 -102 38q-51 0 -104 -48l-104 -92l-106 92q-48 48 -102 48q-64 0 -103 -37 t-39 -101q0 -66 44 -104l306 -286z"/>
    <glyph glyph-name="heart" unicode="♥" horiz-adv-x="890" d="M805 644q70 -64 70 -156t-70 -158l-360 -330l-360 330q-70 66 -70 158t70 156q61 58 151 58q89 0 153 -58l56 -52l58 52q61 58 150 58q88 0 152 -58z"/>
    <glyph glyph-name="musicalnote" unicode="♪" horiz-adv-x="612" d="M396 820q0 -42 46 -97q43 -52 90 -100q45 -46 61 -119q17 -74 -39 -154q-20 -35 -26 -16q-1 6 0 16q11 18 6 56q-5 42 -13 78q-10 42 -45 74.5t-80 39.5v-536q2 -56 -41.5 -100.5t-100.5 -65.5q-72 -28 -143 -8q-69 20 -89 76q-20 57 20 115q42 60 116 85q85 30 158 4 v652h80z"/>
    <glyph glyph-name="musicalnotedbl" unicode="♫" horiz-adv-x="770" d="M221 714l534 116v-704q2 -48 -33 -85t-83 -55q-63 -23 -109 -8t-63 64q-18 48 7 97q22 43 76 68.5t115 14.5v376l-354 -82v-490q0 -48 -35 -85t-83 -55q-63 -22 -108.5 -7.5t-61.5 63.5q-18 48 6 97q21 44 75.5 69.5t116.5 13.5v592z"/>
    <glyph glyph-name="uni268F" unicode="⚏" horiz-adv-x="630" d="M265 570v-90q0 -80 -80 -80h-90q-80 0 -80 80v90q0 80 80 80h90q80 0 80 -80zM615 570v-90q0 -80 -80 -80h-90q-80 0 -80 80v90q0 80 80 80h90q80 0 80 -80zM265 220v-90q0 -80 -80 -80h-90q-80 0 -80 80v90q0 80 80 80h90q80 0 80 -80zM535 300q80 0 80 -80v-90 q0 -80 -80 -80h-90q-80 0 -80 80v90q0 80 80 80h90z"/>
    <glyph glyph-name="uni2691" unicode="⚑" horiz-adv-x="930" d="M889 616q13 6 22 -0.5t0 -19.5q-94 -136 -164 -213q-67 -75 -110 -90q-42 -15 -73 -2q-33 14 -60 37t-63 40q-33 16 -93 -4q-59 -20 -139 -86l90 -352h-100l-184 720l92 34q91 67 152 86q62 20 98 3q35 -16 64 -51t62 -71t79 -62q43 -25 129 -20q84 5 198 51z"/>
    <glyph glyph-name="uni2692" unicode="⚒" d="M170 506q-14 -14 -14 -47q0 -11 -2 -11q-1 -1 -18 -16t-18 -16q-16 -13 -28 4l-70 76q-3 4 -4 8t-0.5 7t4 6.5t6 5.5t7.5 5.5t7 5.5q15 11 20 16q6 6 27 6q22 0 36.5 14.5t18.5 37.5q5 25 10 30q2 0 9 7q18 18 67 53q134 90 186 96q114 0 148 -2q13 0 -8 -8 q-123 -54 -152 -76q-80 -56 -36 -114q35 -47 38 -48q8 -8 -2 -14q-8 -8 -38 -35t-38 -35q-14 -8 -18 -4q-42 48 -71 60t-67 -12zM866 4q17 -22 -2 -38l-48 -42q-22 -13 -38 4l-414 472q-8 8 0 20l72 62q13 8 20 -2zM994 516q-49 -88 -154 -62q-56 12 -100 -32l-82 -78 l-68 78l68 70q40 40 37 118q-1 34 5 58q12 56 140 112q12 6 18 -3t2 -15q-10 -10 -46 -80q-13 -10 -12 -35q1 -24 40 -53q58 -40 96 22q2 4 24.5 38t23.5 36q4 10 13 9q10 -2 11 -17q16 -103 -16 -166zM152 -2l254 248l76 -86l-246 -242q-20 -20 -38 -4l-46 46q-23 18 0 38z "/>
    <glyph glyph-name="uni2699" unicode="⚙" horiz-adv-x="870" d="M855 228q-12 -41 -34 -82q-70 18 -136 -44q-54 -58 -34 -136q-41 -20 -84 -36q-46 82 -132 82t-132 -82q-43 16 -84 36q20 81 -34 136q-53 54 -136 34q-15 29 -34 82q82 52 82 132q0 72 -82 124q19 53 34 82q74 -18 136 44q54 55 34 136q40 21 84 34q47 -80 132 -80 t132 80q44 -13 84 -34q-20 -78 34 -136q66 -62 136 -44q22 -41 34 -82q-80 -50 -80 -124q0 -72 80 -122zM435 168q76 0 129 53t53 129q0 75 -53.5 129.5t-128.5 54.5t-128.5 -54.5t-53.5 -129.5q0 -76 53 -129t129 -53z"/>
    <glyph glyph-name="uni26A0" unicode="⚠" horiz-adv-x="992" d="M972 -24q10 -16 0 -34q-10 -16 -30 -16h-892q-17 0 -28.5 17t-1.5 33l446 782q8 18 30 18t30 -18zM552 126h-110v-100h110v100zM552 200v300h-110v-300h110z"/>
    <glyph glyph-name="uni26A1" unicode="⚡" horiz-adv-x="430" d="M55 -100q-4 4 35 94l79 182q40 90 38 98q-1 6 -94 45q-92 39 -98 55q-5 12 84 120l180 209q47 52 70.5 75.5t25.5 21.5q6 -4 -74 -186.5t-78 -185.5q1 -4 95 -43q92 -39 97 -57q5 -20 -174 -227t-186 -201z"/>
    <glyph glyph-name="uni26AB" unicode="⚫" horiz-adv-x="730" d="M365 700q146 0 248 -102t102 -248q0 -144 -102 -247t-248 -103t-248 103t-102 247q0 146 102 248t248 102z"/>
    <glyph glyph-name="uni26C8" unicode="⛈" d="M481 676q92 0 161.5 -53.5t92.5 -132.5q25 4 40 4q99 0 170 -68q70 -67 70 -166t-70 -166q-71 -68 -170 -68h-578q-73 0 -127.5 52t-54.5 124q0 74 53.5 126t128.5 52q1 0 10 -1t10 -1q-2 16 -2 38q0 108 78 184q77 76 188 76zM583 278q14 17 14 30q0 20 -30 32h-4 q-28 15 -38 16l50 116q6 0 6 20q0 19 -15 21t-27 -11l-26 -27l-36 -39l-29 -32q-35 -38 -45 -52q-12 -18 -12 -30q0 -22 30 -30q6 -3 42 -18l-52 -114q-4 -12 -4 -22t8 -18q17 -10 34 10q98 98 134 148z"/>
    <glyph glyph-name="uni2707" unicode="✇" d="M948 513q67 -67 67 -163q0 -95 -67 -162q-68 -68 -163 -68h-540q-94 0 -162 68t-68 162q0 95 68 163q67 67 162 67q96 0 163 -67t67 -163q0 -72 -40 -130h160q-40 64 -40 130q0 95 68 163q67 67 162 67q96 0 163 -67zM115 350q0 -52 38.5 -91t91.5 -39t91.5 39t38.5 91 q0 53 -38.5 91.5t-91.5 38.5t-91.5 -38.5t-38.5 -91.5zM785 220q53 0 91.5 39t38.5 91q0 53 -38.5 91.5t-91.5 38.5t-91.5 -38.5t-38.5 -91.5q0 -52 38.5 -91t91.5 -39z"/>
    <glyph glyph-name="uni2708" unicode="✈" horiz-adv-x="1033" d="M283 -120l124 400h-180l-112 -100h-100l80 170l-80 170h100l112 -100h180l-124 400h100l224 -400h274q12 -1 36 -4q37 -5 46 -11q11 -7 36 -21q27 -14 16 -34q0 -32 -38 -49q-40 -18 -74 -19l-38 -2h-258l-224 -400h-100z"/>
    <glyph glyph-name="uni2709" unicode="✉" horiz-adv-x="930" d="M17 626q2 14 26 14h846q38 0 20 -32q-8 -15 -24 -22l-97 -51l-180 -97q-93 -50 -97 -52q-16 -10 -46 -10q-29 0 -46 10q-4 2 -97 52l-180 97l-97 51q-32 18 -28 40zM895 486q20 11 20 -10v-368q0 -16 -17 -32t-33 -16h-800q-16 0 -33 16t-17 32v368q0 21 20 10l384 -200 q17 -10 46 -10t46 10z"/>
    <glyph glyph-name="uni270E" unicode="✎" horiz-adv-x="810" d="M780 616q15 -32 15 -48v-16l-542 -540l-238 -52l50 240l542 540q54 12 126 -60q32 -32 47 -64zM239 40l24 24q-1 44 -52 94q-20 20 -45 35q-22 13 -35 13l-14 2l-22 -24l-18 -80q56 -31 82 -82z"/>
    <glyph glyph-name="uni2712" unicode="✒" horiz-adv-x="728" d="M75 -138q-6 -20 -26 -8q-18 7 -16 34q5 103 50 226q-100 154 -52 316q24 -79 76 -158q22 -34 32 -30q7 4 0 83q-8 88 -11 166q-3 88 25 157q24 47 80 94q62 52 104 70q-24 -47 -33 -94q-19 -105 17 -110q12 0 84 120q72 121 106 122q46 4 114 -29t82 -65q12 -24 0 -79 t-40 -83q-44 -44 -146 -62t-114 -24q-16 -10 12 -34q55 -48 176 -20q-55 -79 -136 -114q-77 -33 -132 -38q-53 -5 -54 -10q-4 -23 49 -54q53 -30 101 -14q-30 -56 -63 -84q-34 -29 -52.5 -35t-77.5 -11q-69 -6 -85 -8z"/>
    <glyph glyph-name="uni2713" unicode="✓" horiz-adv-x="697" d="M264 0q-34 0 -56 28l-180 236q-25 39 -2 78.5t67 33.5q29 -5 47 -28l118 -154l296 474q15 23 41 30t55 -8q23 -15 30 -41t-8 -55l-350 -560q-20 -32 -56 -32z"/>
    <glyph glyph-name="uni2715" unicode="✕" horiz-adv-x="500" d="M467 194q18 -18 18 -43t-17.5 -42t-43.5 -17t-43 16l-132 152l-132 -152q-17 -16 -43 -16t-43 16q-16 17 -16 43t16 43l138 156l-138 158q-16 17 -16 43t16 43q17 16 43 16t43 -16l132 -152l132 152q17 16 43 16t43.5 -17t17.5 -42t-18 -43l-138 -158z"/>
    <glyph glyph-name="uni2716" unicode="✖" horiz-adv-x="870" d="M732 647q123 -123 123 -297t-123 -297t-297 -123t-297 123t-123 297t123 297t297 123t297 -123zM521 350l154 154l-86 86l-154 -152l-152 152l-88 -86l154 -154l-154 -152l88 -86l152 152l154 -152l86 86z"/>
    <glyph glyph-name="uni274E" unicode="❎" horiz-adv-x="830" d="M715 750q42 0 71 -29t29 -71v-600q0 -41 -29.5 -70.5t-70.5 -29.5h-600q-40 0 -70 30t-30 70v600q0 41 29.5 70.5t70.5 29.5h600zM569 112l86 86l-154 152l154 154l-86 86l-154 -152l-152 152l-88 -86l154 -154l-154 -152l88 -86l152 152z"/>
    <glyph glyph-name="uni2753" unicode="❓" horiz-adv-x="610" d="M15 526q5 129 77 201.5t203 72.5q130 0 214 -60q86 -62 86 -184q0 -64 -42 -124q-13 -21 -88 -80l-46 -30q-41 -34 -48 -60q-7 -18 -8 -44q0 -14 -16 -14h-128q-16 0 -16 12q5 99 28 124q26 36 104 90l24 14q22 16 34 34q28 43 28 70q0 40 -26 78q-29 36 -92 36 q-68 0 -94 -44q-28 -41 -28 -92h-166zM293 104q44 0 73 -30t27 -74q-2 -45 -31.5 -72.5t-74.5 -25.5q-45 0 -73.5 29.5t-26.5 74.5t31.5 72.5t74.5 25.5z"/>
    <glyph glyph-name="uni275E" unicode="❞" horiz-adv-x="792" d="M15 530q0 61 43 105.5t103 44.5q146 0 184 -146q38 -140 -40 -302q-79 -168 -224 -204q-34 -8 -66 -8v70q111 0 182 108q54 86 26 146q-17 36 -62 36q-60 0 -103 44.5t-43 105.5zM581 680q146 0 184 -146q38 -140 -40 -302q-79 -168 -224 -204q-34 -8 -66 -8v70 q111 0 182 108q54 86 26 146q-17 36 -62 36q-60 0 -103 44.5t-43 105.5t43 105.5t103 44.5z"/>
    <glyph glyph-name="uni2795" unicode="➕" horiz-adv-x="870" d="M732 647q123 -123 123 -297t-123 -297t-297 -123t-297 123t-123 297t123 297t297 123t297 -123zM487 300h200v102h-200v202h-102v-202h-202v-102h202v-202h102v202z"/>
    <glyph glyph-name="uni2796" unicode="➖" horiz-adv-x="870" d="M732 647q123 -123 123 -297t-123 -297t-297 -123t-297 123t-123 297t123 297t297 123t297 -123zM687 402h-504v-102h504v102z"/>
    <glyph glyph-name="uni27A1" unicode="➡" horiz-adv-x="760" d="M365 680l380 -330l-380 -330v192h-350v278h350v190z"/>
    <glyph glyph-name="uni27A2" unicode="➢" horiz-adv-x="890" d="M863 768q17 -17 9 -38q-7 -20 -29 -65l-24 -49q-71 -147 -304 -578l-66 -118l-54 380l-380 56q449 250 696 368q8 4 33 17.5t44.5 23t34.5 13.5q23 7 40 -10zM771 672l-304 -280l28 -234z"/>
    <glyph glyph-name="uni27A6" unicode="➦" horiz-adv-x="930" d="M555 252q-211 0 -332 -45q-122 -45 -208 -197q9 48 20 76.5t43 93.5q40 83 96 148q56 64 156 117q101 53 225 53v192l360 -322l-360 -334v218z"/>
    <glyph glyph-name="uni27F2" unicode="⟲" horiz-adv-x="970" d="M547 736q171 0 289 -120q119 -121 119 -290t-119 -290q-118 -120 -289 -120q-143 0 -252 88l70 74q84 -60 182 -60q126 0 216 90t90 218t-90 218t-216 90q-124 0 -214 -87q-91 -87 -92 -211h142l-184 -204l-184 204h124q1 166 122 283q120 117 286 117z"/>
    <glyph glyph-name="uni27F3" unicode="⟳" horiz-adv-x="970" d="M423 760q168 0 287 -116q118 -116 123 -282h122l-184 -206l-184 206h144q-5 125 -94 210q-91 86 -214 86q-126 0 -216 -90t-90 -218q0 -126 90 -216t216 -90q104 0 182 60l70 -76q-109 -88 -252 -88q-168 0 -288 120t-120 290t120 290t288 120z"/>
    <glyph glyph-name="uni2B05" unicode="⬅" horiz-adv-x="760" d="M393 20l-378 330l378 330v-190h352v-278h-352v-192z"/>
    <glyph glyph-name="uni2B06" unicode="⬆" horiz-adv-x="690" d="M675 336h-192v-350h-276v350h-192l330 380z"/>
    <glyph glyph-name="uni2B07" unicode="⬇" horiz-adv-x="690" d="M675 366l-330 -380l-330 380h192v350h276v-350h192z"/>
    <glyph glyph-name="uniE003" unicode="" d="M365 400q21 0 35.5 -15t14.5 -35t-15.5 -35t-34.5 -15h-300q-19 0 -34.5 15t-15.5 35t14.5 35t35.5 15h300zM365 200q21 0 35.5 -15t14.5 -35t-15.5 -35t-34.5 -15h-300q-19 0 -34.5 15t-15.5 35t14.5 35t35.5 15h300zM1015 350q0 -50 -30 -50h-170v-170q0 -30 -50 -30 t-50 30v170h-164q-30 0 -30 50t30 50h164v170q0 30 50 30t50 -30v-170h170q30 0 30 -50zM365 600q21 0 35.5 -15t14.5 -35t-15.5 -35t-34.5 -15h-300q-19 0 -34.5 15t-15.5 35t14.5 35t35.5 15h300z"/>
    <glyph glyph-name="uniE005" unicode="" horiz-adv-x="730" d="M115 200q19 0 34.5 -15t15.5 -35t-15.5 -35t-34.5 -15h-50q-19 0 -34.5 15t-15.5 35t14.5 35t35.5 15h50zM115 400q19 0 34.5 -15t15.5 -35t-15.5 -35t-34.5 -15h-50q-19 0 -34.5 15t-15.5 35t14.5 35t35.5 15h50zM115 600q19 0 34.5 -15t15.5 -35t-15.5 -35t-34.5 -15 h-50q-19 0 -34.5 15t-15.5 35t14.5 35t35.5 15h50zM315 500q-19 0 -34.5 15t-15.5 35t15.5 35t34.5 15h350q21 0 35.5 -15t14.5 -35t-15.5 -35t-34.5 -15h-350zM665 400q21 0 35.5 -15t14.5 -35t-15.5 -35t-34.5 -15h-350q-19 0 -34.5 15t-15.5 35t15.5 35t34.5 15h350z M665 200q21 0 35.5 -15t14.5 -35t-15.5 -35t-34.5 -15h-350q-19 0 -34.5 15t-15.5 35t15.5 35t34.5 15h350z"/>
    <glyph glyph-name="uniE4AD" unicode="" horiz-adv-x="760" d="M393 730v-190h352v-378h-352v-192l-378 380z"/>
    <glyph glyph-name="uniE4AE" unicode="" horiz-adv-x="760" d="M365 730l380 -380l-380 -380v192h-350v378h350v190z"/>
    <glyph glyph-name="uniE4AF" unicode="" horiz-adv-x="790" d="M775 336h-192v-350h-376v350h-192l380 380z"/>
    <glyph glyph-name="uniE4B0" unicode="" horiz-adv-x="790" d="M775 366l-380 -380l-380 380h192v350h376v-350h192z"/>
    <glyph glyph-name="uniE700" unicode="" d="M815 6v-106h-800v202q41 16 82 26q95 34 129 69q35 35 35 95q0 22 -23 48q-24 27 -31 74q-1 11 -23 25q-21 13 -25 61q0 32 14 38l4 4q-1 6 -3 19q-13 53 -8 95.5t39 85.5q46 58 160 58t160 -58t42 -112l-14 -88q18 -8 18 -42q-5 -55 -23 -60q-20 -5 -23 -26 q-10 -46 -33 -73q-23 -28 -23 -49q0 -60 36 -95t130 -69q180 -65 180 -122zM865 400h150v-100h-150v-150h-100v150h-150v100h150v150h100v-150z"/>
    <glyph glyph-name="uniE704" unicode="" horiz-adv-x="950" d="M795 680q135 -131 140 -322q2 -192 -131 -327q-134 -137 -323 -141q-192 -2 -327 131q-138 134 -139 323q-4 190 130 327q134 138 324 139t326 -130zM467 70q29 0 48.5 19t19.5 47q2 30 -17 49t-49 19h-2q-28 0 -47 -18t-21 -46q0 -29 19 -48.5t47 -21.5h2zM633 398 q26 35 26 78q0 76 -52 115t-136 39t-128.5 -44.5t-47.5 -127.5v-4h110v4q0 26 16 54q17 24 54 24q40 0 52 -20q16 -19 16 -44q0 -15 -9.5 -30t-19 -23t-27 -20.5t-22.5 -16.5q-26 -20 -38 -34q-13 -20 -18 -78v-8h108v4q0 40 32 64l28 18q46 34 56 50z"/>
    <glyph glyph-name="uniE705" unicode="" horiz-adv-x="950" d="M795 680q135 -131 140 -322q2 -192 -131 -327q-134 -137 -323 -141q-192 -2 -327 131q-138 134 -139 323q-4 190 130 327q134 138 324 139t326 -130zM497 524q36 0 60 21.5t24 54.5q0 58 -60 58q-43 0 -65 -24q-23 -25 -23 -50q-2 -29 15.5 -44.5t48.5 -15.5zM401 64 q29 0 84 26q53 25 106 78l-18 24q-48 -36 -72 -36q-15 0 -4 38l42 160q25 96 -22 96q-29 0 -89 -29q-61 -30 -115 -75l16 -26q52 34 74 34q12 0 0 -34l-36 -152q-26 -104 34 -104z"/>
    <glyph glyph-name="uniE70A" unicode="" d="M515 630q88 0 174.5 -24.5t143.5 -62.5q116 -78 162 -148q20 -32 20 -45t-20 -44q-49 -74 -162 -149q-57 -38 -143.5 -62.5t-174.5 -24.5t-174.5 24.5t-143.5 62.5q-111 72 -162 149q-20 31 -20 44t20 45q48 74 162 148q57 38 143.5 62.5t174.5 24.5zM672 199 q65 63 65 151q0 90 -65 153q-64 63 -157 63t-157 -63q-65 -63 -65 -153q0 -88 65 -151q64 -63 157 -63t157 63zM515 350q8 -8 37 -2q11 2 28 6t22 5q21 4 25 -9q0 -44 -33.5 -75t-78.5 -31t-77.5 31t-32.5 75q0 46 32 77t78 31q5 0 7.5 -3t3 -9t0 -11.5t-3 -14t-3.5 -13 t-3 -11.5l-3 -8q-8 -25 2 -38z"/>
    <glyph glyph-name="uniE70C" unicode="" horiz-adv-x="990" d="M951 631q-43 -92 -128 -157l18 -24q17 -28 6 -54l-48 -158q-12 -29 -36 -46l-464 -328q-42 -30 -64 4l-210 304q-12 20 -8.5 40.5t20.5 31.5l464 328q25 18 54 18h158q30 0 48 -26l28 -40q168 130 114 286q-10 28 18 40q32 8 38 -20q36 -106 -8 -199zM743 362 q40 31 34 80l-32 -16q-7 -4 -12 -4q-17 0 -28 18q-12 30 16 40l24 14q-48 35 -92 0q-27 -17 -33.5 -49t13.5 -63q17 -24 49 -31t61 11z"/>
    <glyph glyph-name="uniE711" unicode="" d="M775 494q99 0 170 -68q70 -67 70 -166t-70 -166q-71 -68 -170 -68h-190v190h106l-176 230l-174 -230h104v-190h-248q-73 0 -127.5 52t-54.5 124q0 74 53.5 126t128.5 52q12 0 20 -2q-2 16 -2 38q0 108 78 184q77 76 188 76q92 0 161.5 -53.5t92.5 -132.5q25 4 40 4z"/>
    <glyph glyph-name="uniE712" unicode="" horiz-adv-x="930" d="M915 10q-86 152 -208 197q-121 45 -330 45v-218l-362 334l362 322v-192q88 0 166.5 -27t132.5 -70q110 -88 165 -199q57 -117 68 -164z"/>
    <glyph glyph-name="uniE713" unicode="" d="M165 368l212 -196v-138l-362 334l362 322v-134zM627 498q103 0 182 -50q77 -49 115 -122q78 -155 87 -266l4 -50q-85 154 -168 198t-220 44v-218l-362 334l362 322v-192z"/>
    <glyph glyph-name="uniE714" unicode="" d="M411 604q0 -18 -16 -30l-246 -224l246 -226q16 -12 16 -30q0 -19 -16 -32q-30 -30 -60 0l-320 288l320 286q30 30 60 0q16 -13 16 -32zM697 636l318 -286l-318 -288q-32 -30 -62 0q-32 32 0 62l248 226l-248 224q-32 30 0 62q30 30 62 0z"/>
    <glyph glyph-name="uniE715" unicode="" d="M15 560q0 22 14 36t36 14h288q-65 -49 -98 -88l-10 -12h-130v-450h650v56l100 82v-188q0 -20 -15.5 -35t-34.5 -15h-750q-19 0 -34.5 15t-15.5 35v550zM683 408q-165 0 -242 -41q-75 -40 -160 -181q0 72 32 157q16 43 48 88.5t66 73.5q42 35 111 57t145 22v156l332 -250 l-332 -260v178z"/>
    <glyph glyph-name="uniE716" unicode="" horiz-adv-x="1010" d="M59 548q4 9 12 14q1 0 49 17q62 22 93 32q47 15 58 15h44v150h380v-150h46q12 0 57 -15l92 -32q48 -17 49 -17q18 -8 12 -26q-4 -10 -20 -10h-850q-26 0 -22 22zM941 470q20 0 37 -19.5t17 -40.5v-174q0 -21 -17 -40.5t-37 -19.5h-100l44 -250h-760l44 250h-98 q-20 0 -38 19.5t-18 40.5v174q0 21 18 40.5t38 19.5h870zM225 26h560l-70 324h-420z"/>
    <glyph glyph-name="uniE717" unicode="" d="M217 50q-41 0 -70.5 29.5t-29.5 70.5v302h-102l176 198l174 -198h-100v-262h272l128 -140h-448zM915 250h100l-174 -200l-176 200h102v260h-274l-128 140h450q41 0 70.5 -29.5t29.5 -70.5v-300z"/>
    <glyph glyph-name="uniE718" unicode="" horiz-adv-x="830" d="M715 700q42 0 71 -29t29 -71v-350q0 -41 -29.5 -70.5t-70.5 -29.5h-200v-150l-200 150h-200q-40 0 -70 30t-30 70v350q0 41 29.5 70.5t70.5 29.5h600z"/>
    <glyph glyph-name="uniE720" unicode="" d="M15 450q0 41 29.5 70.5t70.5 29.5h190v-310h350l6 2h4v-92q0 -41 -29.5 -70.5t-70.5 -29.5h-250l-150 -150v150h-50q-40 0 -70 30t-30 70v300zM915 800q42 0 71 -29t29 -71v-300q0 -41 -29.5 -70.5t-70.5 -29.5h-50v-150l-150 150h-350v400q0 41 29.5 70.5t70.5 29.5h450 z"/>
    <glyph glyph-name="uniE722" unicode="" d="M915 750q42 0 71 -29t29 -71v-600q0 -41 -29.5 -70.5t-70.5 -29.5h-800q-40 0 -70 30t-30 70v600q0 41 29.5 70.5t70.5 29.5h800zM915 650h-800v-600h800v600zM465 156h-250v90h250v-90zM465 306h-250v90h250v-90zM465 456h-250v90h250v-90zM811 226l4 -70h-250 q0 70 6 70q84 22 84 66q0 16 -27 56t-27 88q0 110 90 110t90 -110q0 -48 -28 -88t-28 -56q0 -20 20.5 -35.5t43.5 -22.5z"/>
    <glyph glyph-name="uniE723" unicode="" d="M461 780v-860q0 -20 -20 -20h-46q-20 0 -20 20v440h-176q-16 0 -28 6q-13 2 -26 12l-120 82q-10 6 -10 16t10 16l120 82q13 10 26 12q7 4 28 4h176v190q0 20 20 20h46q20 0 20 -20zM1005 592q10 -6 10 -16t-10 -16l-118 -82q-23 -12 -26 -12q-13 -6 -28 -6h-302l-40 230 h342q22 0 54 -16z"/>
    <glyph glyph-name="uniE724" unicode="" horiz-adv-x="530" d="M442 677q73 -73 73 -177q0 -105 -62 -243q-63 -139 -126 -223l-62 -84q-35 41 -83 116.5t-80 137.5q-87 169 -87 296q0 104 73 177t177 73t177 -73zM265 362q55 0 95.5 40t40.5 96q0 55 -40 94.5t-96 39.5q-55 0 -94.5 -39t-39.5 -95t39.5 -96t94.5 -40z"/>
    <glyph glyph-name="uniE727" unicode="" d="M1015 -14q0 -14 -9 -25t-23 -11q-7 0 -18 6l-216 136l-216 -136q-18 -10 -34 0l-218 136l-216 -136q-16 -10 -34 0q-16 10 -16 30v584q0 20 16 30l234 146q18 10 34 0l216 -136l218 136q16 10 32 0l234 -146q16 -10 16 -30v-584zM249 150v506l-168 -104v-506zM483 46v506 l-168 104v-506zM717 150v506l-170 -104v-506zM949 46v506l-168 104v-506z"/>
    <glyph glyph-name="uniE728" unicode="" horiz-adv-x="990" d="M829 694q141 -137 146 -336q2 -200 -136 -342q-137 -141 -338 -146q-200 -2 -341 137q-144 140 -145 337q-5 200 135 342t339 144q198 2 340 -136zM767 86q109 112 108 270q-1 157 -115 267q-111 109 -269 107q-157 -2 -267 -114q-109 -111 -107 -270q1 -158 114 -267 q111 -109 270 -107q157 2 266 114zM267 126q9 58 18.5 93t34.5 101q33 88 77 132q45 45 125 76q81 32 141 42l60 10q-9 -58 -18.5 -93t-34.5 -101q-33 -88 -77 -132q-43 -43 -124 -74q-83 -32 -142 -42zM447 402q-22 -19 -22 -48q0 -27 21.5 -49.5t49.5 -22.5q30 0 49 22 q52 52 88 186q-137 -36 -186 -88z"/>
    <glyph glyph-name="uniE729" unicode="" horiz-adv-x="790" d="M65 458q121 -70 330 -70t330 70l-54 -486q-1 -13 -35 -36q-32 -22 -100 -43t-141 -21q-64 0 -132.5 19t-107.5 45q-35 22 -36 36zM553 758q94 -18 158 -55t64 -71v-10q0 -59 -112 -99q-114 -41 -268 -41t-268 41q-112 40 -112 99v10q0 34 64 71t158 55l42 48q23 26 70 26 h92q52 0 70 -26zM499 646h84q-95 114 -104 126q-13 16 -32 16h-102q-22 0 -32 -16l-106 -126h84l64 66h82z"/>
    <glyph glyph-name="uniE730" unicode="" horiz-adv-x="730" d="M615 800q42 0 71 -29t29 -71v-700q0 -41 -29.5 -70.5t-70.5 -29.5h-500q-40 0 -70 30t-30 70v700q0 41 29.5 70.5t70.5 29.5h500zM615 0v700h-500v-700h500z"/>
    <glyph glyph-name="uniE731" unicode="" horiz-adv-x="730" d="M615 800q42 0 71 -29t29 -71v-700q0 -41 -29.5 -70.5t-70.5 -29.5h-500q-40 0 -70 30t-30 70v700q0 41 29.5 70.5t70.5 29.5h500zM155 504h420v88h-420v-88zM575 200h-420v-88h420v88zM575 308v90h-418v-90h418z"/>
    <glyph glyph-name="uniE736" unicode="" horiz-adv-x="1031" d="M985 480q37 -10 30 -46l-150 -556q-4 -15 -17.5 -22.5t-30.5 -3.5l-406 110q-14 3 -23 16.5t-5 29.5l24 92l-180 -48q-39 -10 -50 26l-160 602q-10 36 28 48l454 122q17 4 30.5 -3.5t17.5 -22.5l66 -244zM97 670l144 -542l392 106l-144 540zM799 -72l132 492l-298 82 l76 -282q10 -34 -28 -46l-196 -52l-26 -102z"/>
    <glyph glyph-name="uniE737" unicode="" d="M15 600q0 41 29.5 70.5t70.5 29.5h800q42 0 71 -29t29 -71v-500q0 -41 -29.5 -70.5t-70.5 -29.5h-800q-40 0 -70 30t-30 70v500zM915 600h-800v-500h800v500z"/>
    <glyph glyph-name="uniE738" unicode="" horiz-adv-x="1011" d="M159 600q0 18 11.5 33t26.5 17h608q20 0 36 -15q14 -14 14 -35v-50h-696v50zM259 700q0 18 11.5 33t26.5 17h410q20 0 36 -15q14 -14 14 -35h-498zM955 550q33 -30 38 -46q6 -18 0 -54l-76 -450q-3 -18 -17.5 -32.5t-30.5 -17.5h-710q-52 0 -60 50q0 1 -39 225t-39 225 q-10 22 -3 44t10 26q1 2 21 20l40 40v-80h836v80zM707 280v100h-70v-80h-260v80h-68v-100q0 -50 48 -50h300q18 0 33 10.5t15 25.5z"/>
    <glyph glyph-name="uniE73A" unicode="" horiz-adv-x="790" d="M552 507q223 -223 223 -537h-118q0 265 -188 453q-187 187 -454 187v120q314 0 537 -223zM386 339q153 -153 153 -369h-118q0 166 -119 285t-287 119v118q218 0 371 -153zM129 196q47 0 80.5 -34t33.5 -80t-34 -79t-80 -33t-80 33t-34 79t33.5 80t80.5 34z"/>
    <glyph glyph-name="uniE73C" unicode="" horiz-adv-x="830" d="M665 200q62 0 106 -43.5t44 -106.5q0 -62 -44.5 -106t-105.5 -44t-105.5 44t-44.5 106q0 3 1 13t1 13l-260 156q-43 -32 -92 -32q-61 0 -105.5 44t-44.5 106t44.5 106t105.5 44q55 0 92 -30l260 156q0 2 -1 12t-1 12q0 62 44.5 106t105.5 44q62 0 106 -43.5t44 -106.5 q0 -62 -44.5 -106t-105.5 -44q-52 0 -90 32l-262 -156q2 -10 2 -26q0 -14 -2 -24l262 -156q36 30 90 30z"/>
    <glyph glyph-name="uniE73D" unicode="" horiz-adv-x="930" d="M165 0q0 40 30 70t70 30q41 0 70.5 -29.5t29.5 -70.5q0 -42 -29 -71t-71 -29q-41 0 -70.5 29.5t-29.5 70.5zM665 0q0 40 30 70t70 30q41 0 70.5 -29.5t29.5 -70.5q0 -42 -29 -71t-71 -29q-41 0 -70.5 29.5t-29.5 70.5zM343 236q-18 -5 -26.5 -10.5t-7.5 -12.5 q1 -13 44 -13h562v-76q0 -20 -20 -20h-654q-20 0 -20 20v76l-54 250l-54 250h-98v80q0 20 20 20h156q20 0 20 -20v-86h704v-274q0 -22 -18 -26z"/>
    <glyph glyph-name="uniE73E" unicode="" d="M355 350q0 67 47 113.5t113 46.5t113 -46.5t47 -113.5q0 -65 -47.5 -112.5t-112.5 -47.5t-112.5 47.5t-47.5 112.5zM175 350h-160v120h118q40 124 145 202t237 78q163 0 284 -116q16 -17 16 -43t-16 -43q-17 -16 -43 -16t-43 16q-78 82 -198 82q-102 0 -177.5 -64 t-96.5 -156q-13 -60 -66 -60zM855 350h160v-120h-118q-39 -120 -141.5 -200t-240.5 -80q-164 0 -282 118q-18 18 -18 43t18 41q17 18 41 18q25 0 43 -18q82 -82 198 -82q101 0 177 64t97 156q12 60 66 60z"/>
    <glyph glyph-name="uniE740" unicode="" horiz-adv-x="930" d="M815 800q42 0 71 -29t29 -71v-700q0 -41 -29.5 -70.5t-70.5 -29.5h-450q-40 0 -69 30t-29 70v100h98v-100h450v700h-450v-150h-98v150q0 41 29 70.5t69 29.5h450zM465 130v120h-450v150h450v120l200 -194z"/>
    <glyph glyph-name="uniE741" unicode="" horiz-adv-x="930" d="M515 800q42 0 71 -29t29 -71v-150h-98v150h-402v-700h402v100h98v-100q0 -41 -29.5 -70.5t-70.5 -29.5h-400q-40 0 -70 30t-30 70v700q0 41 29.5 70.5t70.5 29.5h400zM915 326l-198 -196v120h-450v150h450v120z"/>
    <glyph glyph-name="uniE742" unicode="" horiz-adv-x="926" d="M911 180q0 -33 -24 -56.5t-56 -23.5h-780q-9 0 -15 0.5t-13 2.5t-8 6t2 11q5 9 24 20l802 452q29 18 48.5 6.5t19.5 -44.5v-374z"/>
    <glyph glyph-name="uniE744" unicode="" horiz-adv-x="822" d="M491 746h316v-316l-100 124l-146 -152l-100 100l152 146zM261 302l100 -100l-152 -146l122 -100h-316v316l100 -122z"/>
    <glyph glyph-name="uniE746" unicode="" horiz-adv-x="930" d="M171 146l-106 100h296v-296l-100 106l-146 -156l-100 100zM915 700l-154 -144l104 -100h-294v294l100 -104l144 154z"/>
    <glyph glyph-name="uniE74C" unicode="" horiz-adv-x="830" d="M715 750q42 0 71 -29t29 -71v-400q0 -41 -29.5 -70.5t-70.5 -29.5h-400q-40 0 -70 30t-30 70v402q0 40 29.5 69t70.5 29h400zM715 650h-400v-400h400v400zM115 350v-300h300v-100h-300q-40 0 -70 30t-30 70v300h100z"/>
    <glyph glyph-name="uniE74D" unicode="" d="M915 800q41 0 70.5 -29.5t29.5 -70.5v-600q0 -42 -29 -71t-71 -29h-198v98h200v462h-802v-462h200v-98h-200q-41 0 -70.5 29.5t-29.5 70.5v600q0 40 30 70t70 30h800zM107 670q0 -16 11 -27t27 -11q38 0 38 38q0 16 -11 26t-27 10q-15 0 -26.5 -10.5t-11.5 -25.5z M207 670q0 -16 11 -27t27 -11q38 0 38 38q0 16 -11 26t-27 10q-15 0 -26.5 -10.5t-11.5 -25.5zM917 700h-602v-62h602v62zM513 440l242 -240h-150v-300h-184v300h-150z"/>
    <glyph glyph-name="uniE74E" unicode="" d="M915 750q41 0 70.5 -29.5t29.5 -70.5v-600q0 -42 -29 -71t-71 -29h-800q-41 0 -70.5 29.5t-29.5 70.5v600q0 40 30 70t70 30h800zM245 656q-15 0 -26.5 -10.5t-11.5 -25.5q0 -16 11 -27t27 -11q38 0 38 38q0 16 -11 26t-27 10zM107 620q0 -16 11 -27t27 -11q38 0 38 38 q0 16 -11 26t-27 10q-15 0 -26.5 -10.5t-11.5 -25.5zM917 510h-802v-460h802v460zM917 590v60h-602v-60h602z"/>
    <glyph glyph-name="uniE74F" unicode="" horiz-adv-x="490" d="M245 850l230 -364h-460zM245 -150l-230 366h460z"/>
    <glyph glyph-name="uniE751" unicode="" horiz-adv-x="870" d="M383 402h-368q18 146 121 249q102 102 247 119v-368zM489 770q155 -19 261 -139q105 -119 105 -279q0 -174 -123 -298t-299 -124q-159 0 -278 105q-117 104 -140 263h424q20 0 35 14.5t15 35.5v422z"/>
    <glyph glyph-name="uniE752" unicode="" horiz-adv-x="1031" d="M929 634l8 -48q4 -10 -4 -12l-176 -30v-102h12q86 0 148 -36.5t86 -99.5q30 -83 -10 -176q-41 -95 -134 -160q-10 0 -12 2l-32 38q-2 6 2 10q85 60 117 152t-11 148q-34 -82 -98 -156q-35 -41 -84 -64.5t-108 -15.5q-53 6 -84.5 41.5t-31.5 92.5q0 84 60 148 q49 50 114 66l-2 100q-139 -24 -146 -24q-6 -1 -10 4l-3 14l-4 28q-3 15 -3 18q-3 3 1 4.5t7 1.5l156 28q0 108 -2 114q0 8 8 8q44 0 52 2q10 0 10 -8v-104q154 22 164 22q8 5 10 -6zM691 366q-44 -15 -74 -56.5t-30 -91.5q0 -66 46 -72q28 -6 62 6zM769 380q-1 0 -6 -1 t-6 -1l-2 -204q26 22 57 67t46 80t7 41q-36 18 -96 18zM307 556q14 -38 39 -118l56 -178l41 -130q40 -123 40 -126q0 -4 -4 -4h-86q-6 0 -6 4l-50 166h-176q-48 -164 -50 -166q0 -4 -6 -4h-86q-4 0 -4 4q8 14 176 552q2 8 10 8h96q10 0 10 -8zM177 240h144l-72 264z"/>
    <glyph glyph-name="uniE753" unicode="" horiz-adv-x="935" d="M100 534q-25 -22 -55 -5.5t-27 47.5q2 22 18 36q49 42 79 60q36 22 89 40q60 20 129 4q71 -16 159 -66q90 -50 155 -53q68 -3 100 16q36 22 89 67q38 30 70 -6q32 -40 -6 -72q-122 -110 -234 -110q-101 0 -222 70q-70 39 -119 52q-51 14 -93 0q-42 -13 -65 -29 q-28 -18 -67 -51zM906 418q32 -40 -6 -72l-65 -53q-28 -22 -77 -39.5t-92 -17.5q-97 0 -222 70q-70 39 -119 52q-51 14 -93 0q-42 -13 -65 -29q-28 -18 -67 -51q-16 -14 -36.5 -11.5t-33.5 17.5q-32 40 6 72q43 39 62 52t67 36q49 23 91.5 24t101.5 -16q66 -17 134 -56 q70 -39 119 -52q51 -14 93 0q42 13 65 29q28 18 67 51q38 32 70 -6zM836 168q38 32 70 -6q14 -16 11.5 -37.5t-17.5 -34.5l-65 -53q-28 -22 -77 -39.5t-92 -17.5q-97 0 -222 70q-70 39 -119 52q-53 14 -93 1q-45 -14 -66 -29q-27 -19 -66 -52q-16 -14 -36.5 -11.5 t-33.5 17.5q-32 40 6 72q43 39 62 52t67 36q49 23 91.5 24t101.5 -16q66 -17 134 -56q70 -39 119 -52q51 -14 93 0q42 13 65 29q28 18 67 51z"/>
    <glyph glyph-name="uniE754" unicode="" horiz-adv-x="730" d="M715 206v-100q0 -73 -104 -135q-103 -61 -246 -61q-141 0 -245 61q-105 61 -105 135v100q0 10 4.5 10.5t9.5 -8.5q34 -56 130.5 -88t205.5 -32t205 32t131 88q14 20 14 -2zM715 462v-116q0 -68 -102 -114q-101 -46 -248 -46q-145 0 -247 46q-103 46 -103 114v116 q0 20 14 0q33 -50 130.5 -77t205.5 -27t205.5 26.5t132.5 77.5q7 16 12 0zM365 790q143 0 247 -39q103 -39 103 -93v-64q0 -59 -103 -99q-105 -41 -247 -41t-247 41q-103 40 -103 99v64q0 54 103 93q104 39 247 39z"/>
    <glyph glyph-name="uniE755" unicode="" horiz-adv-x="932" d="M899 304q26 -44 14 -96l-34 -184q-2 -20 -19.5 -35t-38.5 -15h-712q-20 0 -38 15.5t-20 34.5l-34 184q-8 54 14 96l158 374q22 46 72 46h408q50 0 74 -46zM831 172q2 22 -10.5 38t-33.5 16h-644q-21 0 -33.5 -16t-10.5 -38l14 -74q2 -21 19 -36.5t39 -15.5h590 q22 0 39 15.5t19 36.5z"/>
    <glyph glyph-name="uniE756" unicode="" horiz-adv-x="943" d="M537 360q-28 0 -49 -21t-21 -49q0 -20 10 -36q-43 -52 -108.5 -86.5t-137.5 -29.5q-101 10 -157 57q-54 46 -59 109q-8 122 156 184q-17 89 -22 138q-8 56 104 105q111 49 284 49q175 0 286 -49q112 -49 104 -105l-45 -288l-32 -208l-15 -92q-1 -18 -37 -44 q-35 -26 -107 -50t-154 -24q-83 0 -153 24q-71 24 -106 50q-36 26 -37 44q0 5 -4 30q91 -7 170 38t132 114q28 0 48 20.5t20 49.5t-20.5 49.5t-49.5 20.5zM122 251q33 -27 91 -39l-32 204q-101 -44 -96 -106q5 -33 37 -59zM537 522q71 0 149 16.5t121 40.5q38 21 38 35 t-38 35q-44 24 -121 40.5t-149 16.5q-71 0 -147.5 -16.5t-120.5 -40.5q-38 -21 -38 -35t38 -35q43 -24 120 -40.5t148 -16.5z"/>
    <glyph glyph-name="uniE757" unicode="" horiz-adv-x="570" d="M415 356q62 -35 101 -96t39 -140q0 -112 -79 -191t-191 -79t-191 79t-79 191q0 79 39 140t101 96v444q0 50 40 50h170q19 0 34.5 -15t15.5 -35v-444zM285 -50q70 0 120 50t50 120q0 58 -33 101t-83 59v370h-100v-368q-51 -15 -87.5 -59.5t-36.5 -102.5q0 -70 50 -120 t120 -50z"/>
    <glyph glyph-name="uniE758" unicode="" horiz-adv-x="950" d="M800 675q135 -135 135 -325t-135 -325t-325 -135t-325 135t-135 325t135 325t325 135t325 -135zM729 96q106 106 106 254q0 150 -106 255q-107 105 -254 105t-254 -105q-106 -105 -106 -255q0 -148 106 -254t254 -106t254 106zM565 544v-206h112l-202 -190l-202 190h112 v206h180z"/>
    <glyph glyph-name="uniE759" unicode="" horiz-adv-x="950" d="M800 25q-135 -135 -325 -135t-325 135t-135 325q0 192 135 326q136 134 325 134t325 -134q135 -134 135 -326q0 -190 -135 -325zM221 96q106 -106 254 -106t254 106t106 254q0 150 -106 255q-107 105 -254 105t-254 -105q-106 -105 -106 -255q0 -148 106 -254zM667 260 h-204v-112l-190 202l190 204v-114h204v-180z"/>
    <glyph glyph-name="uniE75A" unicode="" horiz-adv-x="950" d="M150 675q135 135 325 135t325 -135t135 -325t-135 -325t-325 -135t-325 135t-135 325t135 325zM730 605q-105 105 -255 105q-147 0 -254 -105q-106 -105 -106 -255q0 -148 106 -254t254 -106q150 0 255 106t105 254q0 150 -105 255zM283 440h204v114l190 -204l-190 -202 v112h-204v180z"/>
    <glyph glyph-name="uniE75B" unicode="" horiz-adv-x="950" d="M150 25q-135 135 -135 325q0 192 135 326q136 134 325 134t325 -134q135 -134 135 -326q0 -190 -135 -325t-325 -135t-325 135zM221 605q-106 -105 -106 -255q0 -148 106 -254t254 -106q150 0 255 106t105 254q0 150 -105 255t-255 105q-147 0 -254 -105zM385 158v204 h-112l202 192l202 -192h-112v-204h-180z"/>
    <glyph glyph-name="uniE75C" unicode="" horiz-adv-x="610" d="M579 422l-234 -224q-18 -18 -40 -18t-40 18l-234 224q-16 16 -16 41t16 41q37 38 78 0l196 -188l196 188q41 38 78 0q16 -16 16 -41t-16 -41z"/>
    <glyph glyph-name="uniE75D" unicode="" horiz-adv-x="371" d="M257 626q13 16 39 16q25 0 41 -16q38 -36 0 -80l-186 -196l186 -194q38 -44 0 -80q-16 -16 -40 -16t-40 16l-226 236q-16 16 -16 38q0 24 16 40z"/>
    <glyph glyph-name="uniE75E" unicode="" horiz-adv-x="370" d="M113 626l226 -236q16 -16 16 -40q0 -22 -16 -38l-226 -236q-16 -16 -40 -16t-40 16q-36 36 0 80l186 194l-186 196q-36 44 0 80q16 16 41 16q26 0 39 -16z"/>
    <glyph glyph-name="uniE75F" unicode="" horiz-adv-x="610" d="M579 280q16 -16 16 -41t-16 -41q-37 -38 -78 0l-196 188l-196 -188q-41 -38 -78 0q-16 16 -16 41t16 41l234 224q16 16 40 16t40 -16z"/>
    <glyph glyph-name="uniE760" unicode="" horiz-adv-x="496" d="M420 470q22 26 48 0q26 -22 0 -48l-196 -192q-22 -22 -48 0l-196 192q-26 26 0 48q24 24 50 0l170 -156z"/>
    <glyph glyph-name="uniE761" unicode="" horiz-adv-x="295" d="M267 180q25 -26 0 -48q-25 -26 -48 0l-192 194q-24 24 0 50l192 194q23 26 48 0q25 -22 0 -48l-156 -172z"/>
    <glyph glyph-name="uniE762" unicode="" horiz-adv-x="295" d="M28 180l158 170l-158 172q-26 26 0 48q26 26 48 0l192 -194q24 -26 0 -50l-192 -194q-22 -26 -48 0q-26 22 0 48z"/>
    <glyph glyph-name="uniE763" unicode="" horiz-adv-x="494" d="M77 230q-26 -23 -50 0q-24 24 0 50l196 190q25 26 48 0l196 -190q24 -26 0 -50q-24 -23 -50 0l-170 158z"/>
    <glyph glyph-name="uniE764" unicode="" horiz-adv-x="896" d="M78 570l370 -356l372 356q22 26 48 0q26 -22 0 -48l-396 -392q-22 -22 -48 0l-396 392q-26 26 0 48q24 24 50 0z"/>
    <glyph glyph-name="uniE765" unicode="" horiz-adv-x="495" d="M467 -20q25 -26 0 -48q-25 -26 -48 0l-392 394q-24 24 0 50l392 394q23 26 48 0q25 -22 0 -48l-358 -372z"/>
    <glyph glyph-name="uniE766" unicode="" horiz-adv-x="495" d="M28 -20l358 370l-358 372q-26 26 0 48q26 26 48 0l392 -394q24 -26 0 -50l-392 -394q-22 -26 -48 0q-26 22 0 48z"/>
    <glyph glyph-name="uniE767" unicode="" horiz-adv-x="894" d="M819 130l-372 358l-370 -358q-26 -23 -50 0q-24 24 0 50l396 390q25 26 48 0l396 -390q24 -26 0 -50q-25 -22 -48 0z"/>
    <glyph glyph-name="uniE768" unicode="" d="M915 600q41 0 70.5 -29.5t29.5 -70.5v-300q0 -42 -29 -71t-71 -29h-800q-41 0 -70.5 29.5t-29.5 70.5v300q0 40 30 70t70 30h800zM915 200v300h-800v-300h800z"/>
    <glyph glyph-name="uniE769" unicode="" d="M915 600q41 0 70.5 -29.5t29.5 -70.5v-300q0 -42 -29 -71t-71 -29h-800q-41 0 -70.5 29.5t-29.5 70.5v300q0 40 30 70t70 30h800zM915 500h-800v-300h800v300zM165 250v198h200v-198h-200z"/>
    <glyph glyph-name="uniE76A" unicode="" d="M915 600q41 0 70.5 -29.5t29.5 -70.5v-300q0 -42 -29 -71t-71 -29h-800q-41 0 -70.5 29.5t-29.5 70.5v300q0 40 30 70t70 30h800zM915 500h-800v-300h800v300zM165 448h200v-198h-200v198zM415 250v198h200v-198h-200z"/>
    <glyph glyph-name="uniE76B" unicode="" d="M915 600q41 0 70.5 -29.5t29.5 -70.5v-300q0 -42 -29 -71t-71 -29h-800q-41 0 -70.5 29.5t-29.5 70.5v300q0 40 30 70t70 30h800zM915 500h-800v-300h800v300zM165 448h200v-198h-200v198zM415 448h200v-198h-200v198zM665 448h200v-198h-200v198z"/>
    <glyph glyph-name="uniE771" unicode="" horiz-adv-x="970" d="M836 640q119 -121 119 -290t-119 -290q-118 -120 -289 -120q-139 0 -252 88l70 76q83 -60 182 -60q126 0 216 90t90 216q0 128 -90 218t-216 90q-124 0 -213 -86q-88 -86 -93 -210h142l-184 -206l-184 206h124q5 166 123 282q119 116 285 116q171 0 289 -120zM511 570h70 v-204l130 -130l-50 -50l-150 150v234z"/>
    <glyph glyph-name="uniE776" unicode="" horiz-adv-x="950" d="M197 494q-51 56 -92 128q55 75 128 118q89 -37 152 -82q-6 -16 -6 -32q0 -7 4 -22q-62 -48 -116 -104q-15 4 -28 4q-23 0 -42 -10zM161 346q-61 -116 -80 -232q-66 106 -66 236q0 109 50 206q39 -64 84 -112q-8 -26 -8 -38q0 -34 20 -60zM427 710q-56 40 -114 70 q84 30 162 30q120 0 230 -62q-74 -13 -162 -50q-26 26 -66 26q-27 0 -50 -14zM333 376q4 17 4 30q0 22 -14 52q36 42 98 90q26 -20 56 -20q12 0 38 8q93 -106 134 -240q-14 -11 -26 -32q-160 24 -290 112zM753 76q0 6 -1 28t-1 28q37 14 54 60q59 4 108 18 q-47 -147 -166 -232q6 48 6 98zM297 -74q-90 36 -158 110q12 142 80 274q8 -2 20 -2q29 0 52 14q145 -99 310 -124q-189 -95 -304 -272zM935 350q0 -27 -4 -66q-65 -18 -130 -24q-24 56 -88 60q-48 146 -148 264q10 19 10 42v10q101 42 210 54q150 -136 150 -340zM649 146 q13 -10 32 -18q2 -24 2 -52q0 -77 -14 -144q-85 -42 -194 -42q-58 0 -112 12q109 159 286 244z"/>
    <glyph glyph-name="uniE777" unicode="" horiz-adv-x="1029" d="M1012 326l-28 -154q-4 -19 -21.5 -32.5t-40.5 -13.5h-816q-23 0 -40.5 13.5t-21.5 32.5l-28 154q-8 32 32 72q5 7 36 38l61 60l59 58q22 22 52 22h516q30 0 52 -22l120 -117q32 -30 38 -39q40 -42 30 -72zM716 366h178l-102 114h-556l-102 -114h178q7 0 12 -8l40 -100 h300l40 100q5 8 12 8z"/>
    <glyph glyph-name="uniE778" unicode="" horiz-adv-x="931" d="M899 306q24 -53 14 -96l-34 -184q-2 -20 -19.5 -35t-38.5 -15h-712q-21 0 -38.5 15t-19.5 35l-34 184q-8 51 14 96l158 374q22 46 72 46h104l-20 -204h-134l254 -210l256 210h-136l-18 204h102q50 0 74 -46zM831 174q2 22 -10.5 38t-33.5 16h-644q-21 0 -33.5 -16 t-10.5 -38l14 -74q2 -20 18.5 -36t37.5 -16h592q22 0 39 15.5t19 36.5z"/>
    <glyph glyph-name="uniE788" unicode="" horiz-adv-x="950" d="M795 680q135 -131 140 -322q2 -192 -131 -327q-134 -137 -323 -141q-192 -2 -327 131q-138 134 -139 323q-4 190 130 327q134 138 324 139t326 -130zM291 706l62 -104q55 28 122 28t122 -28l62 104q-87 46 -190 44q-93 0 -178 -44zM223 228q-28 59 -28 122q0 65 28 124 l-102 62q-46 -88 -46 -190q1 -94 46 -180zM659 -4l-62 104q-60 -30 -122 -30t-122 30l-62 -104q85 -46 190 -46q100 5 178 46zM631 195q64 64 64 155q0 92 -64 156t-156 64t-156 -64t-64 -156q0 -91 64 -155q65 -65 156 -65t156 65zM727 228l104 -62q46 94 44 190 q0 95 -44 180l-104 -62q28 -59 28 -124q0 -63 -28 -122z"/>
    <glyph glyph-name="uniE789" unicode="" horiz-adv-x="591" d="M566 130q29 -80 -17 -157q-45 -77 -139 -111q-94 -28 -175 9q-80 37 -103 117l-106 384q-22 75 7 139t83 101l-96 186q-14 35 14 48q30 18 48 -14l98 -192q79 22 154 -16q73 -37 102 -116zM242 404q25 9 39 34t5 56q-9 26 -33 40t-55 6q-25 -9 -39 -34t-5 -56 q9 -26 33 -40t55 -6z"/>
    <glyph glyph-name="uniE78B" unicode="" horiz-adv-x="250" d="M125 460q46 0 78 -32t32 -78q0 -44 -32.5 -77t-77.5 -33t-77.5 33t-32.5 77q0 46 32 78t78 32z"/>
    <glyph glyph-name="uniE78C" unicode="" horiz-adv-x="600" d="M125 460q46 0 78 -32t32 -78q0 -44 -32.5 -77t-77.5 -33q-46 0 -78 32t-32 78t32 78t78 32zM475 460q46 0 78 -32t32 -78q0 -44 -33.5 -77t-76.5 -33q-46 0 -78 32t-32 78t32 78t78 32z"/>
    <glyph glyph-name="uniE78D" unicode="" horiz-adv-x="950" d="M125 460q46 0 78 -32t32 -78q0 -44 -32.5 -77t-77.5 -33t-77.5 33t-32.5 77q0 46 32 78t78 32zM475 460q46 0 78 -32t32 -78q0 -44 -33.5 -77t-76.5 -33t-76.5 33t-33.5 77q0 46 32 78t78 32zM825 460q46 0 78 -32t32 -78q0 -44 -32.5 -77t-77.5 -33t-77.5 33t-32.5 77 q0 46 32 78t78 32z"/>
    <glyph glyph-name="uniE78E" unicode="" d="M915 650q41 0 70.5 -29.5t29.5 -70.5v-550q0 -42 -29 -71t-71 -29h-50v750h50zM15 550q0 40 30 70t70 30h50v-750h-50q-41 0 -70.5 29.5t-29.5 70.5v550zM685 650h110v-750h-560v750h110v104q96 46 170 46t170 -46v-104zM625 650v66q-53 24 -110 24q-55 0 -110 -24v-66 h220z"/>
    <glyph glyph-name="uniE790" unicode="" horiz-adv-x="670" d="M535 120q49 0 84.5 -35t35.5 -85t-35.5 -85t-84.5 -35q-80 0 -110 74h-164q-87 0 -131 54q-43 53 -43 118v464q-72 34 -72 110q0 50 35.5 85t84.5 35t84.5 -35t35.5 -85q0 -76 -72 -110v-114q0 -78 78 -78h164q30 72 110 72q49 0 84.5 -35t35.5 -85t-35.5 -85t-84.5 -35 q-80 0 -110 74h-164q-43 0 -78 16v-194q0 -78 78 -78h164q30 72 110 72zM535 420q-29 0 -49.5 -20.5t-20.5 -49.5q0 -28 21 -48t49 -20t49 20t21 48q0 29 -20.5 49.5t-49.5 20.5zM65 700q0 -28 21 -48t49 -20t49 20t21 48q0 29 -20.5 49.5t-49.5 20.5t-49.5 -20.5 t-20.5 -49.5zM535 -68q28 0 49 20t21 48q0 29 -20.5 49.5t-49.5 20.5t-49.5 -20.5t-20.5 -49.5q0 -28 21 -48t49 -20z"/>
    <glyph glyph-name="uniE791" unicode="" horiz-adv-x="670" d="M535 770q49 0 84.5 -35t35.5 -85q0 -80 -74 -110q-12 -120 -89 -170q-38 -25 -64.5 -36.5t-78.5 -27.5q-76 -25 -110 -46q-47 -29 -54 -100q70 -30 70 -110q0 -50 -35.5 -85t-84.5 -35t-84.5 35t-35.5 85q0 78 72 112v378q-72 34 -72 110q0 50 35.5 85t84.5 35t84.5 -35 t35.5 -85q0 -76 -72 -110v-204q41 30 138 60q54 17 84 29q31 13 53.5 45t26.5 72q-70 31 -70 108q0 50 35.5 85t84.5 35zM67 650q0 -28 20 -48t48 -20t49 20t21 48q0 29 -20.5 49.5t-49.5 20.5q-28 0 -48 -20.5t-20 -49.5zM135 -18q28 0 49 20t21 48q0 29 -20.5 49.5 t-49.5 20.5q-28 0 -48 -20.5t-20 -49.5q0 -28 20 -48t48 -20zM535 582q28 0 49 20t21 48q0 29 -20.5 49.5t-49.5 20.5q-28 0 -48 -20.5t-20 -49.5q0 -28 20 -48t48 -20z"/>
    <glyph glyph-name="uniE792" unicode="" horiz-adv-x="970" d="M485 820q49 0 84.5 -35t35.5 -85q0 -76 -72 -110v-140q0 -52 78 -52h100q85 0 129 -54q43 -53 43 -118v-114q72 -34 72 -112q0 -50 -35.5 -85t-84.5 -35t-84.5 35t-35.5 85q0 78 72 112v114q0 78 -76 78h-100q-43 0 -78 12v-204q72 -34 72 -112q0 -50 -35.5 -85 t-84.5 -35t-84.5 35t-35.5 85q0 78 72 112v204q-30 -12 -76 -12h-100q-35 0 -56.5 -22t-21.5 -56v-114q72 -34 72 -112q0 -50 -35.5 -85t-84.5 -35t-84.5 35t-35.5 85q0 78 72 112v114q0 65 43 118q44 54 131 54h100q76 0 76 52v140q-72 34 -72 110q0 50 35.5 85t84.5 35z M205 0q0 29 -20.5 49.5t-49.5 20.5q-28 0 -48 -20.5t-20 -49.5q0 -28 20 -48t48 -20t49 20t21 48zM417 700q0 -28 20 -48t48 -20t49 20t21 48q0 29 -20.5 49.5t-49.5 20.5q-28 0 -48 -20.5t-20 -49.5zM555 0q0 29 -20.5 49.5t-49.5 20.5q-28 0 -48 -20.5t-20 -49.5 q0 -28 20 -48t48 -20t49 20t21 48zM835 -68q28 0 49 20t21 48q0 29 -20.5 49.5t-49.5 20.5q-28 0 -48 -20.5t-20 -49.5q0 -28 20 -48t48 -20z"/>
    <glyph glyph-name="uniE793" unicode="" horiz-adv-x="270" d="M135 770q49 0 84.5 -35t35.5 -85q0 -76 -72 -110v-378q72 -34 72 -112q0 -50 -35.5 -85t-84.5 -35t-84.5 35t-35.5 85q0 78 72 112v378q-72 34 -72 110q0 50 35.5 85t84.5 35zM67 650q0 -28 20 -48t48 -20t49 20t21 48q0 29 -20.5 49.5t-49.5 20.5q-28 0 -48 -20.5 t-20 -49.5zM135 -18q28 0 49 20t21 48q0 29 -20.5 49.5t-49.5 20.5q-28 0 -48 -20.5t-20 -49.5q0 -28 20 -48t48 -20z"/>
    <glyph glyph-name="uniE794" unicode="" horiz-adv-x="670" d="M135 770q49 0 84.5 -35t35.5 -85q0 -76 -72 -110v-378q72 -34 72 -112q0 -50 -35.5 -85t-84.5 -35t-84.5 35t-35.5 85q0 78 72 112v378q-72 34 -72 110q0 50 35.5 85t84.5 35zM205 50q0 29 -20.5 49.5t-49.5 20.5q-28 0 -48 -20.5t-20 -49.5q0 -28 20 -48t48 -20t49 20 t21 48zM135 582q28 0 49 20t21 48q0 29 -20.5 49.5t-49.5 20.5q-28 0 -48 -20.5t-20 -49.5q0 -28 20 -48t48 -20zM535 770q49 0 84.5 -35t35.5 -85q0 -76 -72 -110v-378q72 -34 72 -112q0 -50 -35.5 -85t-84.5 -35t-84.5 35t-35.5 85q0 78 72 112v378q-72 34 -72 110 q0 50 35.5 85t84.5 35zM467 650q0 -28 20 -48t48 -20t49 20t21 48q0 29 -20.5 49.5t-49.5 20.5q-28 0 -48 -20.5t-20 -49.5zM535 -18q28 0 49 20t21 48q0 29 -20.5 49.5t-49.5 20.5q-28 0 -48 -20.5t-20 -49.5q0 -28 20 -48t48 -20z"/>
    <glyph glyph-name="uniE79A" unicode="" horiz-adv-x="992" d="M133 170q47 37 94 27t83.5 -48.5t42.5 -81.5q6 -47 -30 -83q-85 -84 -228 -102q-28 -4 -46.5 -3.5t-27 4.5t-6.5 13q0 4 6 10q52 59 64 145q12 84 48 119zM973 816q26 -26 -148 -248q-177 -226 -292 -338q-36 -36 -124 -104q-8 -6 -16 8q-18 34 -49.5 65.5t-64.5 46.5 q-15 6 -8 16q68 89 104 122q124 121 344 287q226 170 254 145z"/>
    <glyph glyph-name="uniE79B" unicode="" horiz-adv-x="951" d="M909 720q13 4 21.5 -3t4.5 -19q-3 -8 -73 -313.5t-73 -312.5q-2 -13 -13 -18.5t-25 0.5l-139 75l-139 75l22 26l209 227l145 156q38 41 40 43q4 4 -1 9t-9 1l-550 -402l-302 120q-12 4 -12 12t12 12q7 4 227 82l437 154q217 76 218 76zM327 -8v204l160 -82 q-122 -108 -142 -128q-18 -14 -18 6z"/>
    <glyph glyph-name="uniE7A1" unicode="" horiz-adv-x="850" d="M549 120l260 -20l-16 -166q-4 -28 -32 -24l-200 16q-28 0 -28 30zM43 100l258 20l16 -164q2 -12 -6.5 -21t-21.5 -9l-198 -16q-11 -2 -21.5 5.5t-10.5 18.5zM17 370q-2 16 -2 34q0 160 120 273q121 113 290 113t290 -113q120 -113 120 -273q0 -18 -2 -34l-16 -170 l-258 22l16 170v12q0 59 -44.5 99.5t-105.5 40.5t-105.5 -40.5t-44.5 -99.5v-12l16 -170l-258 -22z"/>
    <glyph glyph-name="uniE7A2" unicode="" d="M635 462q180 228 194 220q12 -6 -96 -278q-109 -273 -138 -326q-50 -86 -136 -36t-38 136q38 61 214 284zM17 66q0 5 -1 27t-1 27q0 227 145 382q146 156 355 156q73 0 134 -18l-70 -86q-36 4 -64 4q-169 0 -284 -127q-116 -128 -116 -311q0 -11 1 -26l2 -23 q0 -8 -3 -17.5t-10 -16.5q-14 -15 -33.5 -17t-36.5 12q-16 13 -18 34zM877 496q138 -154 138 -376v-16v-14v-12q0 -8 -1 -12t-2 -10t-3 -9.5t-5 -7.5t-7 -8q-13 -13 -34 -13h-4q-21 4 -34.5 19.5t-11.5 36.5q2 18 2 46q0 149 -80 268l21 55q17 45 21 53z"/>
    <glyph glyph-name="uniE7A3" unicode="" horiz-adv-x="991" d="M495 432q58 0 108.5 16.5t61.5 47.5q2 -6 21 -58l35 -100q-5 -38 -70 -65q-66 -27 -156 -27t-156 27q-65 27 -70 65l35 100q19 52 21 58q11 -31 62.5 -47.5t107.5 -16.5zM371 624l52 142q10 34 72 34t74 -34q11 -34 50 -142q-29 -44 -124 -44t-124 44zM935 196 q41 -16 41 -41.5t-37 -46.5l-352 -188q-37 -22 -91 -22t-91 22l-354 188q-38 20 -36 46t42 42l188 76l-22 -60q0 -47 80 -82q78 -34 192 -34t192 34q81 35 82 82l-22 60z"/>
    <glyph glyph-name="uniE7A5" unicode="" horiz-adv-x="990" d="M829 694q141 -137 146 -336q2 -200 -136 -342q-137 -141 -338 -146q-200 -2 -341 137q-144 140 -145 337q-5 200 135 342t339 144q198 2 340 -136zM767 86q109 112 108 270q-1 157 -115 267q-111 109 -269 107q-157 -2 -267 -114q-109 -111 -107 -270q1 -158 114 -267 q111 -109 270 -107q157 2 266 114zM317 350q0 -80 60 -80q40 0 58 40l56 -30q-19 -35 -50 -52q-32 -20 -70 -20q-63 0 -100.5 38.5t-37.5 103.5q0 64 36.5 104t97.5 40q87 0 124 -66l-62 -32q-17 36 -52 36q-60 0 -60 -82zM643 270q43 0 56 40l58 -30q-17 -31 -48.5 -51.5 t-71.5 -20.5q-64 0 -100 38q-38 36 -38 104q0 63 38 106q38 38 98 38q84 0 120 -66l-60 -32q-17 36 -52 36q-62 0 -62 -82q0 -35 15.5 -57.5t46.5 -22.5z"/>
    <glyph glyph-name="uniE7A6" unicode="" horiz-adv-x="990" d="M495 526q68 0 68 68t-68 68q-66 0 -66 -68t66 -68zM625 470q0 12 -9.5 21t-22.5 9h-196q-13 0 -22.5 -9t-9.5 -21v-196h56v-234h148v234h56v196zM835 690q140 -140 140 -340q0 -197 -140 -339q-139 -141 -340 -141q-198 0 -339 141t-141 339q0 200 141 340 q142 140 339 140q200 0 340 -140zM495 -42q162 0 277 115t115 277q0 164 -115 278q-116 114 -277 114t-277 -114q-115 -114 -115 -278q0 -162 115 -277t277 -115z"/>
    <glyph glyph-name="uniE7A7" unicode="" horiz-adv-x="990" d="M835 690q140 -140 140 -340q0 -197 -140 -339q-139 -141 -340 -141q-198 0 -339 141t-141 339q0 200 141 340q142 140 339 140q200 0 340 -140zM501 214q25 0 42.5 12.5t17.5 35.5q0 18 -14 30q-48 20 -102 46q-64 26 -179 78l-141 64q-22 -60 -22 -130q0 -162 115 -277 t277 -115q115 0 205.5 58t138.5 146l-178 80q-7 -44 -45 -74t-87 -34v-74h-56v74q-79 0 -146 58l66 66q50 -44 108 -44zM631 358l242 -108q14 45 14 100q0 164 -115 278q-116 114 -277 114q-107 0 -191.5 -50t-136.5 -128l182 -82q12 37 46 62q31 22 78 24v74h56v-74 q69 -5 120 -44l-62 -64q-43 28 -84 28q-56 0 -56 -38q0 -8 4 -12l60 -28q20 -8 60 -26t60 -26z"/>
    <glyph glyph-name="uniE7A8" unicode="" horiz-adv-x="990" d="M835 690q140 -140 140 -340q0 -197 -140 -339q-139 -141 -340 -141q-198 0 -339 141t-141 339q0 200 141 340q142 140 339 140q200 0 340 -140zM285 342q0 2 1 12t1 12h-46v56h10l-126 56q-22 -60 -22 -128q0 -162 115 -277t277 -115q116 0 205.5 57.5t138.5 146.5 l-246 108h-174q11 -39 26 -56q37 -40 104 -40q44 0 92 20l18 -90q-55 -30 -124 -30q-128 0 -196 92q-34 42 -46 104h-52v58h44v14zM613 366l262 -116q12 48 12 100q0 164 -115 278q-116 114 -277 114q-107 0 -193 -50t-137 -128l158 -70q6 11 28 38q72 82 184 82 q69 0 122 -24l-24 -92q-42 20 -88 20q-64 0 -100 -44q-10 -10 -16 -28l56 -24h136v-56h-8z"/>
    <glyph glyph-name="uniE7A9" unicode="" horiz-adv-x="990" d="M835 690q140 -140 140 -340q0 -197 -140 -339q-139 -141 -340 -141q-198 0 -339 141t-141 339q0 200 141 340q142 140 339 140q200 0 340 -140zM121 466q-18 -54 -18 -116q0 -162 115 -277t277 -115q111 0 199 54t137 138l-152 68v-68h-126v-108h-118v108h-124v74h124v36 l-12 24h-112v74h54zM665 224l-106 48l-6 -12v-36h112zM679 324l192 -86q16 57 16 112q0 164 -115 278q-116 114 -277 114q-110 0 -197 -53t-137 -135l158 -70l-54 98h128l76 -166l46 -20l82 186h128l-122 -224h76v-34z"/>
    <glyph glyph-name="uniE7AA" unicode="" horiz-adv-x="990" d="M739 344q0 115 -67 187.5t-179 72.5q-88 0 -143.5 -51t-68.5 -135h-36l94 -94l96 94h-36q12 86 108 86q57 0 83.5 -42.5t26.5 -113.5q0 -69 -28.5 -114.5t-83.5 -45.5q-100 0 -106 86h-120q12 -90 70 -138q62 -50 142 -50q106 0 180 74q68 74 68 184zM835 690 q140 -140 140 -340q0 -197 -140 -339q-139 -141 -340 -141q-198 0 -339 141t-141 339q0 200 141 340q142 140 339 140q200 0 340 -140zM495 -42q162 0 277 115t115 277q0 164 -115 278q-116 114 -277 114t-277 -114q-115 -114 -115 -278q0 -162 115 -277t277 -115z"/>
    <glyph glyph-name="uniE7AB" unicode="" horiz-adv-x="990" d="M321 382h348v82h-348v-82zM321 228h348v82h-348v-82zM835 690q140 -140 140 -340q0 -197 -140 -339q-139 -141 -340 -141q-198 0 -339 141t-141 339q0 200 141 340q142 140 339 140q200 0 340 -140zM495 -42q162 0 277 115t115 277q0 164 -115 278q-116 114 -277 114 t-277 -114q-115 -114 -115 -278q0 -162 115 -277t277 -115z"/>
    <glyph glyph-name="uniE7AC" unicode="" horiz-adv-x="990" d="M835 690q140 -140 140 -340q0 -197 -140 -339q-139 -141 -340 -141q-198 0 -339 141t-141 339q0 200 141 340q142 140 339 140q200 0 340 -140zM519 212q38 0 70 32l70 -84q-14 -6 -18 -16q-61 -42 -136 -42q-86 0 -159 58t-73 188q0 32 6 62l-154 68q-22 -60 -22 -128 q0 -162 115 -277t277 -115q116 0 205.5 57.5t138.5 146.5l-424 188q1 -52 28 -96q25 -42 76 -42zM435 444l440 -194q12 48 12 100q0 164 -115 278q-116 114 -277 114q-107 0 -193 -50t-137 -128l148 -66q65 102 196 102q89 0 150 -54l-78 -80q-28 28 -66 28q-51 0 -80 -50z "/>
    <glyph glyph-name="uniE7AD" unicode="" horiz-adv-x="990" d="M495 628q-108 0 -153 -81t-45 -197q0 -114 45 -195t153 -81t153 81t45 195q0 116 -45 197t-153 81zM409 350q0 174 86 174q7 0 18 -4q19 -18 6 -42l-106 -194q-4 43 -4 66zM495 178q-2 0 -9.5 1t-8.5 1q0 2 -2 2q-4 0 -6 2q-34 16 -12 46l118 204q6 -44 6 -84 q0 -172 -86 -172zM835 690q140 -140 140 -340q0 -197 -140 -339q-139 -141 -340 -141q-198 0 -339 141t-141 339q0 200 141 340q142 140 339 140q200 0 340 -140zM495 -42q162 0 277 115t115 277q0 164 -115 278q-116 114 -277 114t-277 -114q-115 -114 -115 -278 q0 -162 115 -277t277 -115z"/>
    <glyph glyph-name="uniE7AE" unicode="" horiz-adv-x="990" d="M719 462q0 10 -8.5 18t-19.5 8h-104v104q0 11 -8 19.5t-18 8.5h-264q-24 -8 -24 -28v-352q0 -11 8 -19.5t18 -8.5h104v-104q0 -10 8.5 -18t19.5 -8h260q11 0 19.5 8t8.5 18v354zM427 488q-24 -9 -24 -26v-196h-78v300h210v-78h-108zM665 134h-210v302h210v-302zM835 690 q140 -140 140 -340q0 -197 -140 -339q-139 -141 -340 -141q-198 0 -339 141t-141 339q0 200 141 340q142 140 339 140q200 0 340 -140zM495 -42q162 0 277 115t115 277q0 164 -115 278q-116 114 -277 114t-277 -114q-115 -114 -115 -278q0 -162 115 -277t277 -115z"/>
    <glyph glyph-name="uniE7AF" unicode="" horiz-adv-x="990" d="M819 338q-36 14 -106 44v118l-294 122l-130 -56v-136l2 -2l-116 -48v-122l124 -54l124 52l141 -59l119 -49l6 -2l120 52l10 4v136zM673 184l-2 2v-2l-220 92v86l220 -90v-2h2v-86zM687 296l-70 30l76 32l72 -30zM789 222l-86 -36v84l86 36v-84zM835 690 q140 -140 140 -340q0 -197 -140 -339q-139 -141 -340 -141q-198 0 -339 141t-141 339q0 200 141 340q142 140 339 140q200 0 340 -140zM495 -42q162 0 277 115t115 277q0 164 -115 278q-116 114 -277 114t-277 -114q-115 -114 -115 -278q0 -162 115 -277t277 -115z"/>
    <glyph glyph-name="uniF300" unicode="" horiz-adv-x="950" d="M635 286q28 0 46 -27.5t18 -62.5t-18 -62.5t-46 -27.5q-30 0 -48 27.5t-18 62.5t18 62.5t48 27.5zM475 -40q-8 0 -43.5 1t-42.5 1q-110 0 -180 29q-37 15 -74.5 44.5t-59.5 61.5q-60 84 -60 229q0 114 74 194q-8 5 -1 80t33 140q93 -11 228 -104q47 12 126 12 q84 0 126 -12q63 43 119 68q57 25 83 30l26 6q26 -65 33 -140t-1 -80q74 -80 74 -194q0 -203 -124 -294q-37 -26 -67 -39.5t-76 -21.5q-53 -9 -107 -9q-7 0 -42.5 -1t-43.5 -1zM477 356h-4q-21 0 -85 4.5t-78 4.5q-77 3 -119 -35q-52 -46 -52 -120q0 -124 84 -164 q83 -40 250 -40h4q167 0 251 40q85 40 85 164q0 55 -34 99.5t-85 52.5q-37 6 -113 0q-77 -6 -104 -6zM317 286q28 0 46 -27.5t18 -62.5t-18 -62.5t-46 -27.5q-30 0 -48 27.5t-18 62.5t18 62.5t48 27.5z"/>
    <glyph glyph-name="uniF301" unicode="" horiz-adv-x="990" d="M578 358q-9 0 -41 -2t-42 -2t-42 2t-41 2q-38 0 -61 -18q-26 -26 -26 -60q0 -65 43 -84q45 -20 127 -20t127 20q43 19 43 84q0 34 -26 60q-23 18 -61 18zM447 272q0 -17 -9 -31.5t-23 -14.5t-23 14.5t-9 31.5q0 46 32 46t32 -46zM609 272q0 -17 -10 -31.5t-24 -14.5 t-23 14.5t-9 31.5q0 46 32 46q15 0 24.5 -14t9.5 -32zM835 690q140 -140 140 -340q0 -197 -140 -339q-139 -141 -340 -141q-198 0 -339 141t-141 339q0 200 141 340q142 140 339 140q200 0 340 -140zM539 154q188 0 188 184q0 55 -38 98q4 4 1 41q-3 35 -17 71 q-44 -6 -114 -52q-19 6 -64 6q-40 0 -64 -6q-52 34 -100 50l-14 2q-14 -36 -17 -71q-3 -37 1 -41q-38 -43 -38 -98q0 -184 188 -184h88z"/>
    <glyph glyph-name="uniF303" unicode="" horiz-adv-x="930" d="M211 550q82 0 139 -58.5t57 -141.5t-58 -141q-59 -59 -138 -59t-138 59q-58 58 -58 141t57 141.5t139 58.5zM719 150q-79 0 -138 59q-58 58 -58 141t57 141.5t139 58.5t139 -58.5t57 -141.5t-58 -141q-59 -59 -138 -59z"/>
    <glyph glyph-name="uniF304" unicode="" horiz-adv-x="990" d="M835 690q140 -140 140 -340q0 -197 -140 -339q-139 -141 -340 -141q-198 0 -339 141t-141 339q0 200 141 340q142 140 339 140q200 0 340 -140zM367 250q40 0 70 30t30 70q0 41 -30 71.5t-70 30.5t-70 -30.5t-30 -71.5q0 -40 30 -70t70 -30zM623 250q41 0 70.5 29.5 t29.5 70.5q0 42 -29 72t-71 30q-40 0 -69 -30.5t-29 -71.5q0 -40 29 -70t69 -30z"/>
    <glyph glyph-name="uniF306" unicode="" horiz-adv-x="931" d="M911 558q-31 -186 -171 -351q-141 -167 -245 -237q-33 -19 -61.5 -19.5t-54.5 16.5t-44.5 39t-29.5 46q-14 28 -78.5 238.5t-73.5 223.5q-27 20 -82 -16l-20 -14l-36 50q6 6 21 24l25 28q31 35 100 89q71 56 124 67q58 12 89 -42q25 -40 38 -130q21 -126 25 -142 q28 -106 38 -134q11 -28 18 -39q8 -11 18 -11q41 0 126 166q42 76 6 124t-112 2q23 127 140 188q104 54 182 8q80 -47 58 -174z"/>
    <glyph glyph-name="uniF307" unicode="" horiz-adv-x="990" d="M835 690q140 -140 140 -340q0 -197 -140 -339q-139 -141 -340 -141q-198 0 -339 141t-141 339q0 200 141 340q142 140 339 140q200 0 340 -140zM715 444q13 82 -48 94q-61 14 -110 -40q-28 -28 -34 -66q38 24 56 -1t-2 -63q-43 -84 -64 -84q-14 0 -36 94q-2 8 -5 24 l-6 35q-4 19 -5 26q-3 16 -7 27t-11 24.5t-18 19t-26 2.5q-26 -6 -59.5 -31.5t-56.5 -50.5l-20 -24l18 -24q7 7 27 17t25 -1q5 -7 37 -113.5t39 -120.5q35 -71 96 -42q53 35 124 120q69 83 86 178z"/>
    <glyph glyph-name="uniF309" unicode="" horiz-adv-x="950" d="M935 636q-37 -56 -94 -98v-24q0 -130 -60 -250q-60 -121 -186 -203q-127 -83 -290 -83q-159 0 -290 84q18 -2 46 -2q131 0 234 80q-64 2 -111.5 39t-64.5 93q9 -4 34 -4q26 0 50 6q-63 13 -106.5 64.5t-43.5 121.5v2q36 -20 84 -24q-84 58 -84 158q0 47 26 94 q155 -189 390 -196q-6 18 -6 42q0 78 55.5 133t134.5 55q82 0 136 -58q58 12 120 44q-19 -66 -82 -104q55 8 108 30z"/>
    <glyph glyph-name="uniF30A" unicode="" horiz-adv-x="990" d="M835 690q140 -140 140 -340q0 -197 -140 -339q-139 -141 -340 -141q-198 0 -339 141t-141 339q0 200 141 340q142 140 339 140q200 0 340 -140zM691 438q29 22 46 48q-33 -13 -54 -14q30 18 42 52q-29 -16 -60 -22q-28 28 -70 28q-39 0 -66.5 -28t-27.5 -66q0 -2 1 -11 t1 -11q-121 6 -194 100q-14 -25 -14 -48q0 -49 44 -78q-26 0 -44 12v-2q0 -35 22 -61t54 -31q-15 -4 -24 -4q-10 0 -18 2q19 -66 88 -66q-49 -40 -118 -40h-22q67 -42 144 -42q122 0 196 83t74 187v12z"/>
    <glyph glyph-name="uniF30C" unicode="" horiz-adv-x="530" d="M515 644h-142q-16 0 -26 -16.5t-10 -35.5v-102h178v-148h-178v-442h-170v442h-152v148h152v86q0 92 58.5 158t147.5 66h142v-156z"/>
    <glyph glyph-name="uniF30D" unicode="" horiz-adv-x="990" d="M835 690q140 -140 140 -340q0 -197 -140 -339q-139 -141 -340 -141t-340 141q-140 142 -140 339q0 200 140 340t340 140t340 -140zM609 500v78h-72q-44 0 -74 -33.5t-30 -80.5v-44h-76v-74h76v-222h86v222h90v74h-90v52q0 28 18 28h72z"/>
    <glyph glyph-name="uniF30E" unicode="" horiz-adv-x="890" d="M767 770q44 0 76 -31.5t32 -74.5v-646q0 -44 -32.5 -76t-75.5 -32h-162v310h114v134h-114v70q0 30 28 30h86v152h-96q-74 0 -124 -54.5t-50 -131.5v-66h-104v-134h104v-310h-326q-43 0 -75.5 32t-32.5 76v646q0 43 32 74.5t76 31.5h644z"/>
    <glyph glyph-name="uniF30F" unicode="" horiz-adv-x="926" d="M291 282q-32 45 -32 86l2 14h-14q-63 0 -110 30q-74 44 -74 160q0 53 23.5 98.5t57.5 68.5q75 51 151 51h230v-4q0 -22 -78 -36q-27 0 -38 -6q39 -20 53.5 -54.5t14.5 -97.5q0 -102 -68 -158q-38 -38 -38 -54q0 -17 50 -64q104 -90 104 -178q0 -140 -116 -194 q-67 -34 -150 -34h-4l-4 2q-2 -2 -4 -2q-57 0 -129 26q-47 16 -75 58t-28 102t32 101t83 57q89 28 159 28h2zM271 236q-59 -2 -109.5 -43t-46.5 -97q4 -54 58 -82t119.5 -22t103.5 40q41 37 37 88q-4 54 -44 85t-102 31h-16zM251 728q-10 0 -20 -2q-40 -12 -58 -62 q-15 -59 -1 -109t46 -82q33 -33 71 -33q10 0 18 2q42 12 63 66t3 112q-30 108 -122 108zM761 446h150v-94h-150v-150h-94v150h-150v94h150v150h94v-150z"/>
    <glyph glyph-name="uniF310" unicode="" horiz-adv-x="990" d="M449 486q8 -30 -1 -57t-31 -33h-10q-42 0 -60 60q-6 29 2 54q12 32 40 32q43 0 60 -56zM835 690q140 -140 140 -340q0 -197 -140 -339q-139 -141 -340 -141q-198 0 -339 141t-141 339q0 200 141 340q142 140 339 140q200 0 340 -140zM385 128h8q41 0 74 16q60 30 60 98 q0 44 -52 92q-26 23 -26 32q0 12 20 26q34 34 34 80q0 58 -36 78q4 4 20 4q40 4 40 16v4h-116q-28 0 -45 -7.5t-41 -28.5q-32 -29 -32 -76q0 -44 25 -70t69 -26h6q-4 -23 16 -50h-2q-138 0 -138 -94q0 -41 28 -63q22 -18 40 -24.5t48 -6.5zM721 400h-76v76h-48v-76h-76v-48 h76v-76h48v76h76v48zM407 294q30 0 51 -16.5t23 -43.5q2 -28 -20.5 -45t-53.5 -19q-33 -4 -59.5 10.5t-28.5 41.5q0 30 23 49.5t57 22.5h8z"/>
    <glyph glyph-name="uniF312" unicode="" horiz-adv-x="808" d="M335 190q-24 -124 -58 -211q-31 -81 -96 -129q-10 120 -5 167q2 28 9 63q18 96 48 203q17 59 24 99q-24 51 -19 116q5 61 47 105t100 21q72 -28 31 -154q-27 -85 -32 -103q-15 -50 -4 -90q10 -38 63 -49q72 -15 123.5 39.5t71.5 129.5q21 81 11 163q-11 85 -54 128 q-61 64 -151 70q-96 6 -168 -35.5t-115 -114.5q-46 -77 -32 -170q5 -23 22 -52q21 -36 22 -51.5t-18 -62.5q-146 35 -140 230q5 138 105 234q100 95 233 112q164 18 290 -57t144 -219q26 -176 -66 -317q-91 -141 -252 -129q-23 2 -42 9t-30 13.5t-31 20.5q-23 16 -31 21z "/>
    <glyph glyph-name="uniF313" unicode="" horiz-adv-x="990" d="M835 690q140 -140 140 -340q0 -197 -140 -339q-139 -141 -340 -141t-340 141q-140 142 -140 339q0 200 140 340t340 140t340 -140zM527 238q82 -7 128 64t34 162q-11 73 -74 110q-66 38 -146 28q-65 -7 -117 -56q-52 -48 -53 -118q-4 -99 70 -116q9 23 9 31.5t-10 25.5 q-10 16 -11 27q-13 96 78 144q92 48 158 -18q48 -48 20 -148q-28 -99 -98 -86q-41 8 -33 54q7 45 24 86q16 40 -21 60q-42 18 -65 -33q-23 -52 1 -89q-5 -24 -21 -83q-16 -63 -18 -87q-1 -12 1 -98q52 37 78 172q47 -31 66 -32z"/>
    <glyph glyph-name="uniF315" unicode="" horiz-adv-x="590" d="M575 -58q-97 -52 -208 -52q-59 0 -110 16q-51 19 -82 46q-35 30 -46 64q-14 31 -14 96v322h-100v130q107 36 154 130q24 53 30 116h130v-232h216v-144h-216v-236q0 -83 8 -102q11 -25 32 -36q29 -20 68 -20q68 0 138 46v-144z"/>
    <glyph glyph-name="uniF316" unicode="" horiz-adv-x="990" d="M835 690q140 -140 140 -340q0 -197 -140 -339q-139 -141 -340 -141q-198 0 -339 141t-141 339q0 200 141 340q142 140 339 140q200 0 340 -140zM625 144v74q-36 -24 -70 -24q-17 0 -36 10q-13 8 -14 18q-6 12 -6 52v118h110v74h-110v118h-64q-8 -44 -16.5 -62.5 t-31.5 -37.5q-24 -19 -46 -26v-66h50v-162q0 -52 32 -80q13 -13 40 -24q34 -8 56 -8q57 0 106 26z"/>
    <glyph glyph-name="uniF318" unicode="" horiz-adv-x="930" d="M219 698q0 -42 -30 -69t-74 -27q-42 0 -71 27.5t-29 68.5q0 43 28.5 69.5t73.5 26.5t72.5 -26.5t29.5 -69.5zM21 526h192v-618h-192v618zM327 328q0 98 -4 198h166l10 -86h4q60 100 190 100q108 0 165 -72t57 -194v-366h-192v342q0 134 -98 134q-69 0 -98 -72 q-6 -12 -6 -48v-356h-194v420z"/>
    <glyph glyph-name="uniF319" unicode="" horiz-adv-x="990" d="M835 690q140 -140 140 -340q0 -197 -140 -339q-139 -141 -340 -141q-198 0 -339 141t-141 339q0 200 141 340q142 140 339 140q200 0 340 -140zM377 464h-96v-312h96v312zM329 600q-21 0 -36.5 -14t-15.5 -34q0 -48 52 -48t52 48t-52 48zM733 152v184q0 61 -29 98.5 t-83 37.5q-66 0 -96 -50h-2l-6 42h-84q2 -38 2 -100v-212h98v180q0 19 4 24q12 38 50 38q48 0 48 -68v-174h98z"/>
    <glyph glyph-name="uniF31B" unicode="" horiz-adv-x="950" d="M453 480q-48 85 -122 193q-19 29 -24 33q-80 -39 -137.5 -111t-78.5 -163q182 0 362 48zM517 352q-11 31 -32 68q-183 -56 -402 -56v-14q0 -150 100 -262q9 15 13 21q42 62 103 119q37 35 94 68.5t110 51.5q7 4 14 4zM233 42l-8 6q6 -6 8 -6zM381 732zM735 646 q-115 98 -260 98q-49 0 -92 -12q79 -104 146 -228q139 53 204 140zM150 25q-135 135 -135 325t135 325t325 135t325 -135t135 -325t-135 -325t-325 -135t-325 135zM543 286q-216 -74 -308 -242l-2 -2q109 -84 242 -84q76 0 154 32q-24 141 -84 298zM585 388l10 -20 q110 13 230 -6q35 -6 42 -8q0 139 -88 246l-8 -10q-18 -23 -68 -63q-64 -50 -144 -83q14 -28 26 -56zM619 306q52 -146 76 -280q139 91 168 262q-5 3 -39 11q-104 24 -205 7z"/>
    <glyph glyph-name="uniF31C" unicode="" horiz-adv-x="990" d="M509 352q-44 -14 -82 -44q-55 -44 -80 -86q-48 58 -48 128v4q107 0 200 28l14 -28zM523 432q-24 44 -70 110q12 4 42 4q73 0 128 -46q-32 -42 -100 -68zM529 316q34 -89 40 -146q-35 -16 -74 -16q-69 0 -118 42q41 80 152 120zM305 394q18 92 104 134q34 -43 72 -110 q-91 -24 -176 -24zM609 328q33 0 80 -10q-16 -82 -82 -128q-6 57 -36 136q16 2 38 2zM835 690q140 -140 140 -340q0 -197 -140 -339q-139 -141 -340 -141q-198 0 -339 141t-141 339q0 200 141 340q142 140 339 140q200 0 340 -140zM662 185q69 69 69 165q0 98 -69 167 t-167 69q-99 0 -166 -69q-68 -70 -68 -167q0 -95 68 -165q67 -69 166 -69q98 0 167 69zM541 398q73 29 108 74q42 -52 42 -116q-51 8 -90 8q-26 0 -44 -2q-2 2 -2 4q0 4 -2 4q-6 10 -12 28z"/>
    <glyph glyph-name="uniF31E" unicode="" d="M239 142q19 0 35.5 16t16.5 36v314q0 92 66 157q67 65 158 65t158 -65q66 -65 66 -157v-60l-102 -34l-70 34v60q0 22 -15 37t-37 15q-20 0 -36 -15.5t-16 -36.5v-314q0 -92 -66 -158t-158 -66t-158 66t-66 158v132h172v-132q0 -20 16.5 -36t35.5 -16zM845 326h170v-132 q0 -92 -66 -158t-158 -66t-158 66t-66 158v134l70 -32l102 32v-134q0 -20 16.5 -36t35.5 -16q22 0 38 15t16 37v132z"/>
    <glyph glyph-name="uniF31F" unicode="" horiz-adv-x="990" d="M834 690q141 -140 141 -340q0 -198 -141 -339t-339 -141q-201 0 -340 141q-140 142 -140 339q0 200 140 340t340 140q197 0 339 -140zM355 164q46 0 79 33t33 79v160q0 26 28 26q26 0 26 -26v-30l34 -18l52 18v30q0 46 -33 79t-79 33t-80 -33t-34 -79v-160q0 -26 -26 -26 t-26 26v68h-88v-68q0 -46 34 -79t80 -33zM747 276v68h-86v-68q0 -26 -26 -26q-28 0 -28 26v68l-52 -16l-34 16v-68q0 -46 33.5 -79t80.5 -33q46 0 79 33t33 79z"/>
    <glyph glyph-name="uniF321" unicode="" d="M409 222l34 -100q-64 -52 -168 -52q-107 0 -183 73q-77 74 -77 199q0 129 80 209q79 79 188 79q111 0 167 -45q55 -44 91 -159l36 -116q48 -146 202 -146q120 0 120 60q0 54 -78 72l-78 18q-134 35 -134 152q0 89 58 126q59 38 146 38q184 0 198 -146l-114 -14 q-7 70 -90 70q-82 0 -82 -62q0 -50 66 -66l74 -16q150 -36 150 -166q0 -160 -238 -160q-136 0 -204 53q-69 53 -100 149l-36 116q-4 10 -9 25.5t-7.5 22.5t-7 17t-10 18.5t-13.5 19.5q-32 43 -103 43q-64 0 -113 -46t-49 -142q0 -81 46 -130q47 -50 110 -50q60 0 128 56z "/>
    <glyph glyph-name="uniF322" unicode="" horiz-adv-x="990" d="M834 690q141 -140 141 -340q0 -198 -141 -339t-339 -141q-201 0 -340 141q-140 142 -140 339q0 200 140 340t340 140q197 0 339 -140zM627 210q120 0 120 80q0 66 -76 84l-38 8q-32 8 -32 34q0 30 40 30q45 0 46 -34l58 6q-6 74 -100 74q-102 0 -102 -84q0 -60 66 -76 l40 -8q40 -10 40 -36q0 -32 -62 -32q-76 0 -100 74l-20 58q-18 58 -45 81q-28 23 -85 23q-55 0 -95 -40q-41 -41 -41 -106q0 -59 37.5 -97.5t94.5 -38.5q54 0 86 26l-18 50q-28 -28 -66 -28q-34 0 -56 26.5t-22 63.5q0 43 22 69.5t60 26.5q34 0 49 -18t27 -56l18 -58 q31 -102 154 -102z"/>
    <glyph glyph-name="uniF324" unicode="" horiz-adv-x="951" d="M781 402q4 -28 4 -52q0 -159 -113 -275q-112 -115 -273 -115q-159 0 -271 115q-113 116 -113 275q0 163 112 276q113 114 272 114q54 0 90 -10v-222q-77 26 -154 -10q-70 -34 -101 -101q-31 -66 -5 -129q25 -59 95 -79q69 -19 139 15q52 26 87 80t35 122v286 q15 -7 24 -14q174 -108 310 -114q33 -2 4 -52q-42 -76 -130 -106z"/>
    <glyph glyph-name="uniF325" unicode="" horiz-adv-x="990" d="M834 690q141 -140 141 -340q0 -198 -141 -339t-339 -141q-201 0 -340 141q-140 142 -140 339q0 200 140 340t340 140q197 0 339 -140zM665 376q53 16 72 60q12 22 -4 22q-73 5 -156 58q-1 1 -6 4t-6 4v-146q0 -74 -62 -100q-36 -18 -70.5 -8.5t-47.5 40.5 q-16 35 3.5 67.5t50.5 46.5q36 20 78 6v112q-23 6 -46 6q-80 0 -137 -58t-57 -140q0 -80 57 -138t137 -58t138 58t58 138q0 3 -1 13t-1 13z"/>
    <glyph glyph-name="uniF327" unicode="" horiz-adv-x="910" d="M766 661q129 -129 129 -311q0 -116 -53 -210t-137 -152q-101 170 -310 176q-162 6 -272 -104q-108 124 -108 290q0 184 128 312t312 128q182 0 311 -129zM661 232q-172 106 -422 48q-26 -8 -20 -32q6 -27 32 -22q228 54 382 -40q23 -14 36 8q16 22 -8 38zM711 366 q-102 62 -235 77q-137 15 -251 -19q-31 -10 -24 -44q12 -32 42 -22q115 32 233.5 16.5t200.5 -66.5q28 -19 46 10q18 30 -12 48zM783 462q19 34 -14 56q-117 69 -288 82q-173 14 -282 -24q-13 -4 -21.5 -18.5t-4.5 -31.5q11 -38 50 -28q93 34 249 22q154 -12 255 -72 q34 -19 56 14zM391 34q119 -6 172 -110q-67 -14 -108 -14q-113 0 -214 56q59 72 150 68z"/>
    <glyph glyph-name="uniF328" unicode="" horiz-adv-x="990" d="M834 690q141 -140 141 -340q0 -126 -58.5 -229t-149.5 -165q-108 186 -338 192q-176 6 -296 -114q-118 137 -118 316q0 200 140 340t340 140q197 0 339 -140zM719 220q-188 114 -460 54q-30 -7 -22 -36q7 -30 36 -22q245 58 416 -46q26 -14 40 10q14 26 -10 40zM775 366 q-103 64 -245 83.5t-287 -19.5q-34 -10 -24 -46q10 -33 46 -26q111 34 244 19t228 -73q32 -20 50 12q18 34 -12 50zM853 472q20 38 -16 62q-127 74 -314 89t-306 -27q-16 -3 -26.5 -19.5t-3.5 -34.5q6 -17 21 -26.5t35 -3.5q103 36 271 23q171 -14 277 -77q38 -24 62 14z M427 4q131 -5 186 -118q-58 -16 -118 -16q-125 0 -234 62q66 73 166 72z"/>
    <glyph glyph-name="uniF32A" unicode="" horiz-adv-x="952" d="M827 200q28 -21 37 -49.5t-11 -64.5q-109 -154 -298 -187q-187 -33 -344 77q-26 18 -38 30q153 -49 276 -7q115 38 181 100q43 41 53 52q18 20 28 35q19 29 52 33t64 -19zM215 230q16 -36 0.5 -64t-46.5 -42q-37 -17 -67 -6.5t-43 40.5q-80 173 -14 352q66 181 238 260 q19 8 44 16q-85 -77 -123 -170q-39 -95 -32 -178q6 -76 15 -120.5t28 -87.5zM829 646q122 -147 106 -336q-6 -39 -8 -48q-18 83 -63 156t-102 116q-40 30 -97.5 57.5t-104.5 37.5q-13 3 -34 5.5t-31.5 4.5t-23.5 9t-22 19q-19 29 -15.5 65t25.5 58t58 20q190 -18 312 -164z M321 324q17 39 34 46v6q0 11 8 24v2q0 6 2 12q4 50 33.5 82t78.5 32q48 0 78 -32.5t32 -81.5q2 -6 2 -12v-2q8 -8 8 -24v-6q17 -7 34 -46q25 -54 6 -66q-12 -6 -30 22q-6 -28 -30 -46q26 -11 26 -26q0 -16 -19.5 -24t-42.5 -8q-52 0 -60 26h-8q-12 -26 -62 -26 q-23 0 -42.5 8t-19.5 24q0 15 26 26q-24 19 -30 46q-18 -28 -28 -22q-22 10 4 66z"/>
    <glyph glyph-name="uniF32D" unicode="" horiz-adv-x="890" d="M149 -80q-55 0 -94.5 40t-39.5 96v344h174q-4 -28 -4 -50q0 -107 76 -183q77 -77 184 -77q106 0 183 77t77 183q0 26 -6 50h176v-344q0 -56 -39.5 -96t-94.5 -40h-592zM741 780q55 0 94.5 -39t39.5 -95v-146h-218q-78 110 -212 110q-138 0 -212 -110h-218v146 q0 56 39.5 95t94.5 39h592zM685 614q0 -9 7.5 -16.5t16.5 -7.5h72q24 0 24 24v72q0 24 -24 24h-72q-24 0 -24 -24v-72zM605 350q0 -65 -47.5 -112.5t-112.5 -47.5t-112.5 47.5t-47.5 112.5q0 67 47 113.5t113 46.5t113 -46.5t47 -113.5z"/>
    <glyph glyph-name="uniF330" unicode="" horiz-adv-x="990" d="M301 806l194 -158l-284 -184l-196 164zM681 54l116 78v-46l-302 -190l-302 190v46l118 -78q6 -2 12 -2q10 0 14 4l158 132l160 -132q4 -4 14 -4q6 0 12 2zM975 628l-194 -164l-286 184l196 158zM495 286l286 178l174 -140l-282 -184zM319 140l-282 184l174 140l284 -178z "/>
    <glyph glyph-name="uniF333" unicode="" horiz-adv-x="796" d="M677 700q31 0 59.5 -18t28.5 -46q0 -1 0.5 -9t2 -26.5t2.5 -37.5q14 -188 8 -315q-5 -106 -19.5 -176.5t-50.5 -120.5q-38 -51 -91 -51q-153 0 -194 26q-26 20 -18 130q1 39 37 59q34 19 69 19l34 -2l-4 -70q-16 -2 -38 -2q-19 0 -24 -26q-4 -37 40 -42l86 4q38 5 28 136 q-4 30 -52 39q-69 10 -96 17q-45 13 -73 65q-9 17 -11 17t-8 -58t-30 -58q-45 0 -139 15q-95 15 -115 35q-33 34 -62 149q-28 113 -28 151q0 34 58 30h116q78 0 78 72q0 8 -1 55.5t-1 56.5q0 82 40 82q89 0 120 -14q16 -7 28 -24t14 -36l4 -14zM667 366q-8 28 -29.5 53 t-48.5 25q-26 0 -44 -21.5t-22 -47.5q-5 -23 0 -29q5 -4 9.5 -5t7.5 -0.5t11 2.5t13 3q17 4 31 4q17 0 59 -16q10 -4 15 0q6 6 -2 32zM187 642q0 -22 -28 -22h-144l176 172q-4 -123 -4 -150z"/>
    <glyph glyph-name="uniF336" unicode="" horiz-adv-x="830" d="M195 214l-180 -180v414q0 302 278 302h442l-312 -310q-6 -6 -10 -6q-8 0 -12 10v128q-94 0 -112 -2q-94 -16 -94 -146v-210zM635 488l180 180v-414q0 -304 -278 -304h-440l312 312q1 6 8 6q8 0 12 -10v-128q94 0 112 2q94 16 94 146v210z"/>
    <glyph glyph-name="uniF339" unicode="" horiz-adv-x="950" d="M935 132q0 -108 -75 -185t-179 -77q-61 0 -120 32q-56 -8 -80 -8q-182 0 -311 132t-129 320q0 46 10 90q-36 60 -36 134q0 107 74 184q73 76 180 76q75 0 136 -40q34 8 76 8q183 0 310 -132q128 -133 128 -320q0 -49 -10 -96q26 -60 26 -118zM705 130q30 46 30 100 q0 45 -16 80q-17 31 -50 54q-37 23 -76 36q-74 21 -96 26q-97 14 -122 50q-10 10 -10 26q0 24 28 42q26 20 76 20t74 -18q27 -24 38 -50q18 -28 26 -36q17 -12 38 -12q26 0 45 19t19 45q0 19 -14 52q-17 24 -42 48q-27 21 -74 38q-50 14 -102 14q-74 0 -128 -22 q-52 -19 -84 -57t-32 -95q0 -53 28 -90q33 -39 76 -56q48 -22 116 -36q9 -2 80 -20q29 -10 46 -28q18 -14 18 -42q0 -38 -37 -59t-85 -21q-72 0 -100 40q-25 45 -26 46q-7 23 -24 40q-20 14 -40 14q-26 0 -45 -17.5t-19 -42.5q0 -45 30 -85t70 -63q64 -34 158 -34 q78 0 138 24q60 28 88 70z"/>
    <glyph glyph-name="uniF33A" unicode="" horiz-adv-x="990" d="M563 276q0 -21 -20 -32.5t-48 -11.5q-19 0 -36 6q-24 13 -34 42q-6 17 -14 22q-8 8 -22 8q-13 0 -26 -10q-10 -10 -10 -24q0 -21 16 -46q42 -56 128 -56q39 0 78 14q36 18 48 40q18 24 18 56q0 27 -9.5 45.5t-29.5 29.5t-37 17t-47 13.5t-45 12.5q-5 2 -11.5 4t-8.5 3 t-5.5 3.5t-8.5 7.5q-6 6 -6 16q0 15 18 24.5t40 9.5q32 0 42 -10q12 -10 22 -28q6 -12 14 -20q11 -6 22 -6q14 0 24 10t10 24t-6 30q-5 9 -24 28q-21 15 -42 20q-24 8 -56 8q-86 0 -120 -46q-18 -22 -18 -50q0 -30 16 -52q20 -20 42 -32q49 -17 89 -25q33 -7 47 -21 q10 -7 10 -24zM835 690q140 -140 140 -340q0 -197 -140 -339q-139 -141 -340 -141q-198 0 -339 141t-141 339q0 200 141 340q142 140 339 140q200 0 340 -140zM611 82q58 0 100 43.5t42 102.5q0 35 -16 66q6 28 6 54q0 104 -72 178t-174 74q-24 0 -42 -2q-34 22 -74 22 q-59 0 -101.5 -43.5t-42.5 -102.5q0 -39 20 -76q-4 -15 -4 -50q0 -104 72 -178t172 -74q34 0 46 4q30 -18 68 -18z"/>
    <glyph glyph-name="uniF33C" unicode="" horiz-adv-x="950" d="M399 516q-1 -149 -77 -274q-74 -123 -197 -184q-110 131 -110 296q0 170 110 298q109 127 274 156v-292zM697 -50q-103 -56 -222 -56t-220 56q178 114 220 288q42 -174 222 -288zM551 518v290q165 -29 274 -156q110 -128 110 -298q0 -168 -108 -296q-119 58 -197.5 181 t-78.5 279z"/>
    <glyph glyph-name="uniF33F" unicode="" horiz-adv-x="1026" d="M865 212q0 -103 -127 -197q-128 -95 -313 -95q-161 0 -285 78q-125 78 -125 196q0 129 146 280q91 92 186 129q88 35 130 1t14 -120q-5 -14 8 -14l16 2q72 34 134 34q61 0 84 -34.5t-2 -99.5q-6 -18 16 -24q118 -37 118 -136zM627 71q80 65 72 145q-11 80 -100 128 q-90 48 -212 36t-202 -77q-81 -65 -70 -145q8 -80 98 -128t212 -36t202 77zM711 710q-16 0 -26 10t-10 26q0 34 36 34q123 0 212 -87q88 -87 88 -211v-2q0 -14 -11 -24t-25 -10t-24 10t-10 24q0 95 -68 163q-67 67 -162 67zM871 486q4 -15 -4.5 -27.5t-21.5 -14.5 q-34 -4 -42 28q-8 38 -36.5 66t-65.5 36q-34 7 -26 40q7 36 42 28q57 -12 99.5 -55t54.5 -101zM343 276q48 10 88 -12.5t48 -61.5q10 -39 -19 -77q-28 -37 -79 -45q-35 -7 -67.5 3.5t-50 33t-20.5 52.5t22 61q28 35 78 46z"/>
    <glyph glyph-name="uniF342" unicode="" horiz-adv-x="889" d="M786 610q88 -43 88 -162q0 -130 -110 -210q-107 -80 -306 -80h-30q-17 0 -32.5 -12.5t-19.5 -27.5l-36 -156q-12 -42 -52 -42h-106q-17 0 -27.5 12.5t-6.5 29.5l6 24h68q17 0 32.5 13.5t19.5 28.5l36 156q10 40 52 40h30q196 0 306 80q110 83 110 210q0 56 -22 96z M206 94q-2 -15 -18 -28.5t-32 -13.5h-108q-17 0 -26.5 12.5t-5.5 29.5l150 646q10 40 52 40h224q75 0 126 -8q58 -13 94 -34q35 -23 58 -62q20 -38 20 -96q0 -130 -110 -210q-107 -80 -304 -80h-32q-16 0 -32 -12.5t-18 -27.5zM294 468q-4 -16 6.5 -28t25.5 -12h28 q86 0 134 36q48 34 48 98q0 47 -32 65.5t-92 18.5h-34q-42 0 -52 -40z"/>
    <glyph glyph-name="uniF345" unicode="" horiz-adv-x="950" d="M423 616l-396 -362q-12 48 -12 96q0 138 70.5 246t179.5 164q14 -16 158 -144zM665 492l-328 296q63 22 138 22q100 0 190 -40v-278zM735 730q88 -60 144 -159t56 -221q0 -79 -26 -152h-174v532zM115 240l102 92v-362q-115 80 -168 210q12 12 66 60zM287 -70v198h590 q-53 -96 -147.5 -161t-212.5 -77h-84q-86 11 -146 40z"/>
    <glyph glyph-name="uniF348" unicode="" d="M49 178q0 -4 -10 -4q-6 0 -10 4l-14 70l14 72q4 4 10 4q10 0 10 -4l16 -72zM151 140q0 -8 -12 -8t-12 8l-12 108l12 166q0 8 12 8t12 -8l14 -166zM253 142q0 -10 -14 -10t-14 8l-10 108l10 222q0 10 14 10t14 -10l12 -222zM355 142q0 -10 -16 -10t-16 10l-8 106l8 224 q0 10 16 10t16 -10l10 -224zM457 144q0 -12 -18 -12q-17 0 -18 12l-6 104l6 256q5 14 18 14q18 0 18 -14l8 -256zM529 132q-14 0 -14 14v396q0 10 12 14q37 14 84 14q88 0 153 -58.5t73 -141.5q23 10 50 10q51 0 89.5 -37t38.5 -87q0 -52 -38 -89t-90 -37z"/>
    <glyph glyph-name="uniF34B" unicode="" horiz-adv-x="1028" d="M173 89q-136 101 -155 255q-23 170 108 308q131 139 336 164q207 26 366 -77q130 -84 170 -214.5t-23 -302.5q-49 -126 -165 -225t-270 -117v108h-48q-183 0 -319 101zM798 208v276q0 35 -10 52q-8 19 -30 38q-18 13 -44 20q-28 6 -56 6q-70 0 -116 -46q-9 15 -36 32 q-31 14 -70 14q-66 0 -110 -38v30h-88v-384h92v236q0 19 14.5 39.5t31.5 26.5q19 10 40 10q25 0 46 -16q12 -26 12 -48v-248h90v236q0 36 22 54q22 22 62 22q20 0 32 -6q10 -1 16 -12q8 -8 8 -18q4 -17 4 -28v-248h90z"/>
    <glyph glyph-name="uniF34E" unicode="" d="M337 680q81 0 128.5 -45.5t47.5 -126.5q0 -42 -20 -76.5t-50 -41.5l-24 -4q57 0 85 -40q30 -42 31 -80v-40q0 -52 -19 -93.5t-51 -60.5q-53 -32 -108 -38h-342v646h322zM327 422q31 0 42.5 18t11.5 58q0 24 -9 43.5t-25 22.5l-10 2h-180v-144h170zM403 234q0 40 -16 62 q-17 23 -32 24l-18 2h-180v-172h172q74 0 74 84zM797 516q65 0 114.5 -27.5t70.5 -71.5q38 -82 33 -151l-2 -30h-320q0 -54 27 -82t55 -28l26 -2q45 0 71 17t27 33l2 18h108q0 -82 -53 -124q-53 -43 -105 -44l-54 -2q-66 0 -118 23.5t-76 63.5q-44 72 -44 133v26q0 37 15 87 t39 79.5t69 54.5q50 27 115 27zM895 322q0 32 -20 65q-9 15 -30 25t-44 10q-42 0 -70 -25t-34 -51l-6 -24h204zM921 642v-78h-256v78h256z"/>
    <glyph glyph-name="uniF351" unicode="" horiz-adv-x="950" d="M829 704q106 -106 106 -256q0 -142 -96 -247q-95 -104 -236 -115q-33 -82 -109.5 -139t-174.5 -57q-127 0 -215 90q-89 91 -89 214q0 99 56 175t138 109q12 140 116 236q103 96 246 96q152 0 258 -106zM117 194q0 -83 59.5 -142.5t142.5 -59.5q119 0 174 100 q-103 22 -178.5 97t-97.5 179q-100 -55 -100 -174zM323 396q16 -75 70 -128.5t128 -69.5q-2 80 -60.5 138t-137.5 60zM623 198q85 17 143.5 86.5t58.5 163.5q0 106 -75 180q-76 74 -179 74q-91 0 -161 -58q-71 -59 -87 -146q123 -1 211 -89t89 -211zM119 596q-42 0 -73 30 t-31 72q0 43 30.5 73.5t73.5 30.5t73.5 -30t30.5 -74q0 -43 -30.5 -72.5t-73.5 -29.5zM119 756q-24 0 -40 -17t-16 -41q0 -23 16.5 -39.5t39.5 -16.5t40.5 17t17.5 39q0 24 -17 41t-41 17z"/>
    <glyph glyph-name="uniF354" unicode="" horiz-adv-x="990" d="M547 302q-18 8 -54 8h-58v-116h52q49 0 62 10q24 14 24 50q0 31 -26 48zM525 402q20 17 20 44q0 28 -24 42q-11 6 -60 6h-26v-102h34q43 0 56 10zM807 830q70 0 119 -49t49 -119v-622q0 -70 -49 -120t-119 -50h-624q-70 0 -119 50t-49 120v622q0 70 49 119t119 49h624z M521 106q85 0 125 42q41 43 41 102q0 96 -96 116v2q68 23 68 102q0 48 -34.5 78t-85.5 30h-214v-472h196z"/>
    <glyph glyph-name="uniF357" unicode="" horiz-adv-x="970" d="M593 144q8 -60 -56 -84q-21 -10 -50 -10q-55 0 -110 20q-52 19 -78 40l-26 18l-74 -170q69 -34 136 -56l-80 -20q-30 -6 -53.5 10t-30.5 42l-154 646q-7 30 9.5 54.5t42.5 29.5l186 44q-66 -72 -60 -182q6 -78 72 -141t166 -99q150 -58 160 -142zM953 122q8 -30 -9 -54 t-43 -30l-136 -34q43 59 44 136q4 88 -54 164t-186 118q-152 53 -158 126q-6 52 56 72q22 10 54 8q47 -2 93.5 -14.5t68.5 -31.5l16 -14l58 160q-79 42 -176 60l134 32q30 6 53.5 -10t30.5 -42z"/>
    <glyph glyph-name="uniF600" unicode="" horiz-adv-x="930" d="M465 800q276 0 363 -88t87 -362q0 -276 -87 -363t-363 -87q-273 0 -362 87q-88 87 -88 363q0 274 88 362t362 88z"/>
    <glyph glyph-name="uniF601" unicode="" horiz-adv-x="930" d="M865 650q19 0 34.5 -15t15.5 -35v-200h-500v250h450zM15 300h300v-250h-260q-40 0 -40 50v200zM915 100q0 -22 -14 -36t-36 -14h-450v250h500v-200zM15 600q0 50 40 50h260v-250h-300v200z"/>
    <glyph glyph-name="uniF603" unicode="" horiz-adv-x="756" d="M557 60q-41 -68 -111.5 -87t-154.5 25l-64 36l-108 -184l-56 32l206 358q-67 -10 -134 28l-120 70l186 324l122 -70q67 -41 92 -100l206 358l58 -34l-108 -186l64 -36q75 -43 98 -119q22 -75 -20 -143q-47 -87 -152 -92q48 -90 -4 -180zM541 580l-124 -216l-2 -6l62 -36 q57 -30 103 -16.5t73 60.5q29 57 13.5 102.5t-61.5 73.5zM165 320q57 -30 103 -16.5t73 60.5q29 56 13.5 103t-61.5 73l-64 38l-128 -222zM321 50q57 -30 103 -16.5t73 60.5q22 37 18.5 71t-21.5 60.5t-47 44.5l-62 36l-4 -4l-124 -216z"/>
    <glyph glyph-name="u1F304" unicode="🌄" d="M253 518q-52 0 -90 -39t-38 -91v-160l-108 296q-11 38 22 52l680 248q36 11 50 -24l102 -282h-100l-124 150l-214 -150h-180zM977 428q16 0 27 -12t11 -28v-472q0 -16 -11 -28t-27 -12h-724q-16 0 -27 12t-11 28v472q0 16 11 28t27 12h724zM921 -24v162l-72 160l-166 -60 l-130 -132l-138 170l-92 -214v-86h598z"/>
    <glyph glyph-name="u1F30E" unicode="🌎" horiz-adv-x="990" d="M835 689q140 -142 140 -339q0 -200 -140 -340t-340 -140q-197 0 -339 140q-141 140 -141 340q0 198 141 339t339 141q201 0 340 -141zM827 589q-79 107 -202 149q-18 -24 -16 -32q5 -38 18 -51t30 -7l32 12q7 1 20 2q23 -24 0 -47q-21 -21 -45 -56q-23 -34 -1 -77 q34 -64 96 -64q28 -1 43 -36q16 -36 17 -66q10 -79 -14 -140q-23 -44 14 -76q86 113 86 250q0 132 -78 239zM373 50q10 0 11.5 23t-2 57t-3.5 36q0 30 14 74q12 41 59 70q48 29 55 46q25 52 -8 104q-18 28 -75 45q-42 13 -59 13q-13 5 -38.5 7t-39.5 -3q-10 -4 -27 11 t-17 29q0 10 15 27q6 7 31 32.5t32 34.5q10 18 39 37q9 6 23 17.5t29 20.5q22 14 27 23q-114 -15 -200.5 -86t-125.5 -172q4 0 14 -1t21 -2.5t15 -1.5q58 -5 62 -25q4 -11 -14 -45q-18 -33 -18 -61q0 -30 38 -56t38 -46q0 -25 8 -68t8 -44q0 -12 36 -54t52 -42zM367 -40 q68 -20 128 -20q128 0 226 68q-26 45 -118 34q-23 -1 -65 -17q-44 -16 -47 -17q-71 -16 -76 -16q-7 -1 -16 -7t-19.5 -15t-12.5 -10z"/>
    <glyph glyph-name="u1F342" unicode="🍂" horiz-adv-x="970" d="M251 646q182 107 506 66q169 -23 196 -50q4 -5 -2 -10q-76 -40 -130 -109t-78 -132q-23 -61 -65 -132q-40 -69 -93 -105q-137 -96 -382 -4q-67 -78 -114 -176q-12 -24 -47 -7t-25 39q43 100 129 193q87 95 176 153q179 119 317 174l54 20q-65 0 -148.5 -15.5 t-144.5 -37.5q-70 -25 -162 -84q-89 -57 -161 -141q-23 242 174 358z"/>
    <glyph glyph-name="u1F393" unicode="🎓" d="M515 70l276 136q-1 -8 -4 -27.5t-5 -30.5t-6 -25t-10 -22q-17 -25 -69 -45q-24 -10 -75.5 -38.5t-67.5 -36.5q-24 -11 -39 -11q-17 0 -40 13q-10 5 -41 23l-57 32q-26 14 -46 22q-71 31 -103 69q-30 36 -47 109zM421 456q0 -26 29 -41t65 -15q27 0 36 4l292 -68 l-268 -152q-60 -32 -120 0l-416 234q-24 14 -24 33t24 33l416 234q60 32 120 0l416 -234q24 -14 24 -33t-24 -33l-78 -44l-308 102q-23 36 -90 36q-36 0 -65 -15t-29 -41zM863 42q18 113 13 182q-4 64 -19 90l-14 22l70 38q5 -7 12 -28q7 -22 17 -101q11 -83 -7 -197 q-5 -26 -22 -30q-15 -3 -33.5 4.5t-16.5 19.5z"/>
    <glyph glyph-name="u1F3A4" unicode="🎤" horiz-adv-x="670" d="M655 468v-138q0 -92 -69 -164t-201 -84v-132h130q20 0 20 -20v-60q0 -20 -20 -20h-360q-20 0 -20 20v60q0 20 20 20h130v132q-132 12 -201 84t-69 164v138q0 20 20 20h30q20 0 20 -20v-138q0 -66 59 -123q58 -57 191 -57t191 57q59 57 59 123v138q0 20 20 20h30 q20 0 20 -20zM220 275q-35 26 -35 55v158h300v-158q0 -29 -35 -55q-34 -25 -115 -25t-115 25zM485 770v-212h-300v212q0 29 35 55q34 25 115 25t115 -25q35 -26 35 -55z"/>
    <glyph glyph-name="u1F3A8" unicode="🎨" horiz-adv-x="1010" d="M973 512q29 -62 20 -104q-8 -39 -28.5 -46.5t-60.5 8.5q-95 35 -160 -36q-30 -46 -21 -75q10 -31 34 -65q25 -35 23 -50q-2 -26 -36 -63q-33 -36 -126 -74q-90 -37 -216 -37q-185 0 -291 101t-95 245q7 117 104 235q95 116 216 151q289 84 536 -80q72 -48 101 -110z M554 156q31 0 52.5 22.5t21.5 53.5t-21.5 52.5t-52.5 21.5q-32 0 -54 -21.5t-22 -52.5q0 -32 22 -54t54 -22z"/>
    <glyph glyph-name="u1F3AB" unicode="🎫" horiz-adv-x="970" d="M231 272l178 -178l326 326l-178 178zM715 680q0 -42 30 -71t72 -29q25 0 48 12l76 -76q14 -14 14 -36t-14 -36l-550 -550q-16 -16 -36 -16t-36 16l-76 76q12 20 12 48q0 42 -29 72t-71 30q-20 0 -50 -14l-74 76q-16 16 -16 36t16 36l550 550q14 14 36 14t36 -14l74 -76 q-12 -22 -12 -48zM409 14l406 406l-258 258l-408 -406z"/>
    <glyph glyph-name="u1F3AC" unicode="🎬" horiz-adv-x="1010" d="M955 700q17 0 28.5 -11.5t11.5 -28.5v-60h-100v-100h100v-100h-100v-100h100v-100h-100v-100h100v-60q0 -16 -12 -28t-28 -12h-900q-16 0 -28 12t-12 28v60h100v100h-100v100h100v100h-100v100h100v100h-100v60q0 17 11.5 28.5t28.5 11.5h900zM395 200l250 150l-250 150 v-300z"/>
    <glyph glyph-name="u1F3AF" unicode="🎯" horiz-adv-x="890" d="M749 654q126 -126 126 -304t-126 -304t-304 -126t-304 126t-126 304t126 304t304 126t304 -126zM481 2q123 13 212 102q88 88 100 212h-192v70h192q-12 124 -100 212q-89 89 -212 102v-194h-70v194q-125 -14 -213 -102q-89 -89 -101 -212h194v-70h-194q12 -123 101 -212 q88 -88 213 -102v194h70v-194z"/>
    <glyph glyph-name="u1F3B5" unicode="🎵" horiz-adv-x="730" d="M615 800q42 0 71 -29t29 -71v-700q0 -41 -29.5 -70.5t-70.5 -29.5h-500q-40 0 -70 30t-30 70v700q0 41 29.5 70.5t70.5 29.5h500zM505 324q32 44 23 92q-9 49 -33 80q-7 10 -49 66q-25 34 -25 54h-60v-368q-41 16 -90 -2q-36 -12 -62 -44t-14 -68q11 -31 52 -44.5t86 0.5 q88 30 88 98v262q31 -5 52.5 -29t20.5 -55q-2 -26 -3 -42q-4 -10 2 -10q5 0 12 10z"/>
    <glyph glyph-name="u1F3C6" unicode="🏆" horiz-adv-x="930" d="M879 718q14 0 25 -10t11 -24q0 -155 -84 -245q-46 -49 -74 -72t-88 -61q-78 -52 -111 -87t-33 -85v-66q68 -7 116 -32q46 -24 46 -56q0 -36 -65 -63q-64 -27 -157 -27q-90 0 -156 27t-66 63q0 32 46 56q48 25 118 32v66q0 50 -33 84q-31 32 -113 88q-60 38 -88 61t-74 72 q-84 90 -84 245q0 14 11 24t25 10h172q48 92 242 92q196 0 244 -92h170zM789 500q47 59 54 148h-126q-6 -159 -54 -262q79 56 126 114zM465 750q-52 0 -100.5 -13t-71.5 -34q-18 -17 -18 -29q0 -14 18 -31q23 -21 71.5 -34t100.5 -13t100.5 13t71.5 34q18 17 18 31 q0 12 -18 29q-23 21 -71.5 34t-100.5 13zM87 648q7 -89 54 -148q47 -58 126 -114q-48 103 -54 262h-126z"/>
    <glyph glyph-name="u1F44D" unicode="👍" horiz-adv-x="830" d="M655 467q55 -7 108 -24q52 -16 52 -47q0 -74 -61 -284q-62 -212 -107 -212q-144 0 -288 42t-144 88v342q0 14 15 34q21 29 99 86q30 22 108 74q52 36 104 100l31 39l32 39l22 26q31 37 41 26q48 -77 29 -137q-20 -62 -59 -119q-40 -58 -40 -60q1 -5 58 -13zM165 476 q14 0 0 -14q-50 -50 -50 -104v-318q0 -51 52 -104q10 -10 -2 -10q-41 0 -66 12t-51 41q-33 37 -33 99v242q0 62 33 100q34 38 63 47q30 9 54 9z"/>
    <glyph glyph-name="u1F44E" unicode="👎" horiz-adv-x="830" d="M176 231q-56 7 -108 24q-53 17 -53 47q0 70 62 285q61 213 106 213q146 0 288 -43q144 -43 144 -89v-342q0 -23 -33 -54q-34 -33 -74 -61q-53 -38 -82 -57l-33 -22q-52 -36 -104 -100l-31 -39l-32 -39l-22 -26q-31 -37 -41 -26q-48 77 -29 137q20 62 59 119q40 58 40 60 q-1 5 -57 13zM665 222q-12 0 2 14q48 50 48 104v318q0 51 -52 104q-10 10 2 10q41 0 66 -12t51 -41q33 -37 33 -99v-242q0 -94 -63 -129q-47 -27 -87 -27z"/>
    <glyph glyph-name="u1F45C" unicode="👜" horiz-adv-x="889" d="M874 608l-98 -648q-8 -30 -38 -30h-586q-28 0 -40 30q-94 620 -96 648q-4 34 22 60l55 43l55 43q17 16 56 16h480q39 0 56 -16q87 -66 110 -86q28 -26 24 -60zM444 232q58 0 99.5 35t61.5 88q35 93 43 155h-92q-38 -188 -112 -188t-112 188h-92q47 -278 204 -278zM92 600 h704l-110 116h-484z"/>
    <glyph glyph-name="u1F464" unicode="👤" horiz-adv-x="970" d="M751 128q204 -72 204 -122v-106h-940v106q0 50 204 122q93 34 128 69q34 34 34 95q0 23 -22 49q-21 26 -32 73q-3 21 -23 26q-18 5 -23 60q0 32 14 38l4 4q-7 46 -12 88q-4 53 41 112q45 58 157 58t158 -58t40 -112l-12 -88q18 -8 18 -42q-5 -55 -23 -60q-20 -5 -23 -26 q-7 -47 -31 -74q-23 -26 -23 -48q0 -60 35 -95q34 -34 127 -69z"/>
    <glyph glyph-name="u1F465" unicode="👥" d="M791 -90v150q0 54 -30 81q-32 29 -154 89q40 30 40 84q0 17 -13 33t-19 51q-2 8 -14 16q-13 8 -14 42q0 24 12 30q-10 40 -8 73.5t23 64.5q27 40 95 40t96 -40q29 -40 24 -78l-8 -60q12 -6 12 -30q-1 -34 -14 -42q-12 -8 -14 -16q-6 -35 -19 -51t-13 -33q0 -42 21 -66 t77 -48q113 -47 130 -80q6 -7 9 -61q4 -71 5 -101v-48h-224zM527 172q182 -78 182 -124v-138h-694v184q0 44 84 78q73 30 104 64q28 31 28 88q0 21 -19 44t-25 68q-1 10 -18 22q-15 11 -20 56q0 26 10 36l4 2l-5 46l-5 36q-5 50 33 103t127 53t127 -53t33 -103l-10 -82 q14 -8 14 -38q-5 -45 -20 -56q-17 -12 -18 -22q-6 -45 -25 -68t-19 -44q0 -57 28 -88q31 -34 104 -64z"/>
    <glyph glyph-name="u1F4A1" unicode="💡" horiz-adv-x="730" d="M224 -6h282v-104q-70 -42 -142 -40q-70 -1 -140 40v104zM230 54q0 69 -34.5 136.5t-79.5 116.5q-45 47 -75.5 114t-24.5 137q7 119 94 206q86 86 254 86q169 0 255 -86q84 -84 95 -206q7 -108 -68 -209l-32 -42q-23 -29 -34.5 -45t-28 -42.5t-27.5 -51.5 q-24 -54 -24 -114h-270zM122 550q-3 -2 0 -20.5t2 -19.5q-1 -2 5 -19t6 -18t2.5 -7t6 -12t6.5 -12l4 -6q1 -2 13.5 -19t13.5 -19t15 -22t16 -22q88 -120 112 -212h82q24 94 112 212q1 1 13 18l24 34q12 17 13 19q29 46 33 62q9 37 7 63q-16 196 -244 196q-226 0 -242 -196z "/>
    <glyph glyph-name="u1F4A5" unicode="💥" horiz-adv-x="931" d="M900 234q19 -16 15.5 -33t-27.5 -23l-78 -22q-23 -6 -39.5 -27.5t-14.5 -48.5l4 -82q2 -23 -13.5 -34t-38.5 0l-86 44q-25 12 -49 3t-33 -29l-46 -88q-12 -22 -29 -23t-33 19l-50 78q-35 48 -88 20l-122 -70q-21 -14 -32 -6.5t-2 32.5l54 164q8 25 -5 44.5t-35 21.5 l-106 12q-25 4 -29 18t15 30l86 76q20 17 20 41t-20 41l-86 76q-19 16 -15.5 33t27.5 23l78 22q23 6 40.5 28t15.5 48l-6 82q0 24 14 35.5t38 0.5l80 -38q29 -10 52 -1t34 29l46 80q12 22 30 21t30 -23l50 -86q11 -21 33 -28.5t47 6.5l136 84q20 13 29.5 6.5t0.5 -32.5 l-60 -170q-11 -24 2.5 -42t37.5 -20l114 -12q26 -2 29.5 -16.5t-15.5 -29.5l-86 -76q-18 -16 -18 -41t18 -41zM516 246h-100v-104h100v104zM516 302v260h-100v-260h100z"/>
    <glyph glyph-name="u1F4A6" unicode="💦" horiz-adv-x="970" d="M177 294q-65 0 -113.5 47.5t-48.5 112.5q0 58 33 112l73 123q39 67 50 155q1 4 7 4q5 0 5 -4q11 -88 50 -155l73 -123q33 -54 33 -112q0 -65 -48.5 -112.5t-113.5 -47.5zM793 294q-65 0 -113.5 47.5t-48.5 112.5q0 87 69 171q30 37 55 98t32 121q1 4 7 4q5 0 5 -4 q11 -88 50 -155l73 -123q33 -54 33 -112q0 -65 -48.5 -112.5t-113.5 -47.5zM479 400q1 4 7 4q5 0 5 -4q11 -88 50 -155l73 -123q33 -54 33 -112q0 -65 -48.5 -112.5t-113.5 -47.5t-113.5 47.5t-48.5 112.5q0 58 33 112l73 123q39 67 50 155z"/>
    <glyph glyph-name="u1F4A7" unicode="💧" horiz-adv-x="590" d="M365 603q48 -104 92 -159q118 -151 118 -296q0 -113 -83 -196q-82 -82 -197 -82t-197 82q-83 83 -83 196q0 147 118 296q44 55 92 159q47 101 60 219q2 8 11 8t9 -8q13 -118 60 -219zM263 430q2 5 -2 14q-6 6 -14 6q-7 0 -12 -6l-40 -58l-48 -70q-15 -23 -34 -75 q-18 -51 -18 -101q0 -24 17 -41t41 -17q58 0 58 68q0 94 42 246q1 4 5 17t5 17z"/>
    <glyph glyph-name="u1F4B3" unicode="💳" d="M915 700q41 0 70.5 -29.5t29.5 -70.5v-500q0 -42 -29 -71t-71 -29h-800q-41 0 -70.5 29.5t-29.5 70.5v500q0 40 30 70t70 30h800zM915 400h-800v-300h800v300zM915 600h-800v-50h800v50zM245 294v-30h-30v30h30zM425 234v30h30v30h60v-30h-30v-30h-30v-30h-60v30h30z M485 204v30h30v-30h-30zM305 204v30h60v-30h-60zM395 234h-30v60h60v-30h-30v-30zM275 234v-30h-60v30h30v30h30v30h60v-30h-30v-30h-30z"/>
    <glyph glyph-name="u1F4BB" unicode="💻" d="M915 790q41 0 70.5 -29.5t29.5 -70.5v-550q0 -42 -29.5 -77t-68.5 -43l-218 -44l86 -38q49 -28 -20 -28h-500q-97 0 32 52l36 14l-220 44q-39 8 -68.5 43t-29.5 77v550q0 40 30 70t70 30h800zM915 144v556h-800v-556h800z"/>
    <glyph glyph-name="u1F4BC" unicode="💼" d="M471 226h-456q2 61 5 128l4 106q1 39 1 58q5 108 100 108h160q22 36 60 112q14 26 23 32t37 6h222q26 0 36 -7t22 -31q11 -19 60 -112h160q95 0 100 -108l10 -292h-454v100h-90v-100zM369 626h292l-28 54q-14 26 -42 26h-152q-28 0 -42 -26zM561 76v100h430 q-3 -42 -10 -166q-6 -84 -90 -84h-750q-90 0 -90 84l-10 166h430v-100h90z"/>
    <glyph glyph-name="u1F4BE" unicode="💾" horiz-adv-x="830" d="M15 650q0 41 29.5 70.5t70.5 29.5h558l142 -156v-544q0 -41 -29.5 -70.5t-70.5 -29.5h-600q-40 0 -70 30t-30 70v600zM565 400q19 0 34.5 15t15.5 35v250h-400v-250q0 -20 15.5 -35t34.5 -15h300zM565 650v-200h-100v200h100z"/>
    <glyph glyph-name="u1F4BF" unicode="💿" horiz-adv-x="950" d="M800 675q135 -135 135 -325t-135 -325t-325 -135t-325 135t-135 325t135 325t325 135t325 -135zM475 200q61 0 105.5 44t44.5 106q0 64 -43 107t-107 43q-61 0 -105.5 -44t-44.5 -106t44.5 -106t105.5 -44z"/>
    <glyph glyph-name="u1F4C1" unicode="📁" horiz-adv-x="1031" d="M969 500q29 0 38.5 -10.5t7.5 -37.5l-42 -452q-2 -27 -13.5 -38.5t-40.5 -11.5h-806q-51 0 -56 50l-42 452q-2 27 7.5 37.5t38.5 10.5h908zM935 610l10 -40h-846l14 132q4 19 20 33.5t36 14.5h164q52 0 86 -34l30 -30q31 -36 86 -36h340q20 0 38 -12t22 -28z"/>
    <glyph glyph-name="u1F4C4" unicode="📄" horiz-adv-x="730" d="M227 398h280v-90h-280v90zM615 800q42 0 71 -29t29 -71v-700q0 -41 -29.5 -70.5t-70.5 -29.5h-500q-40 0 -70 30t-30 70v700q0 41 29.5 70.5t70.5 29.5h500zM615 700h-500v-700h500v700zM505 504h-280v88h280v-88zM505 200v-88h-280v88h280z"/>
    <glyph glyph-name="u1F4C5" unicode="📅" horiz-adv-x="930" d="M815 700q42 0 71 -29t29 -71v-600q0 -41 -29.5 -70.5t-70.5 -29.5h-700q-40 0 -70 30t-30 70v600q0 41 29.5 70.5t70.5 29.5h46v-100h160v100h290v-100h160v100h44zM815 400h-700v-400h700v400zM275 630h-70v170h70v-170zM725 800v-170h-70v170h70z"/>
    <glyph glyph-name="u1F4C8" unicode="📈" horiz-adv-x="1033" d="M49 284q-42 11 -32 56q11 42 54 32l98 -24l-52 -80zM939 272q14 12 33.5 11t30.5 -15q33 -32 -2 -64l-252 -226q-12 -12 -30 -12q-15 0 -28 10l-286 220l-54 14l50 80l36 -8q13 -5 16 -8l264 -204zM449 492l-350 -550q-12 -22 -38 -22q-25 0 -39 24t1 46l374 588 q7 15 28 20q18 6 36 -6l246 -156l226 326q10 16 27.5 19t34.5 -9q38 -24 12 -62l-252 -362q-24 -36 -62 -12z"/>
    <glyph glyph-name="u1F4CA" unicode="📊" horiz-adv-x="830" d="M765 800q21 0 35.5 -15t14.5 -35v-850h-200v850q0 50 40 50h110zM465 500q21 0 35.5 -15t14.5 -35v-550h-200v550q0 50 40 50h110zM165 200q21 0 35.5 -15t14.5 -35v-250h-200v250q0 50 40 50h110z"/>
    <glyph glyph-name="u1F4CB" unicode="📋" horiz-adv-x="730" d="M85 -150q-29 0 -49.5 20.5t-20.5 49.5v760q0 28 21 49t49 21l60 -150h440l60 150q28 0 49 -21t21 -49v-760q0 -29 -20.5 -49.5t-49.5 -20.5h-560zM545 650h-360l-44 100h108l36 100h160l36 -100h110z"/>
    <glyph glyph-name="u1F4CE" unicode="📎" horiz-adv-x="969" d="M259 -140q-103 0 -170 72q-73 71 -74 166q-1 96 84 190l496 496q79 80 174 54q43 -12 78.5 -47t47.5 -79q26 -96 -54 -176l-474 -474q-40 -40 -88 -46q-48 -4 -80 28q-30 24 -27 74t47 92l332 334q24 26 50 0t0 -50l-332 -332q-44 -44 -20 -70q30 -20 70 20l474 474 q50 50 34 108q-16 60 -76 76q-54 14 -108 -36l-494 -494q-65 -76 -64 -143q1 -66 52 -117q62 -55 127.5 -50t130.5 62l496 494q24 24 50 0q25 -22 0 -48l-496 -496q-82 -82 -186 -82z"/>
    <glyph glyph-name="u1F4D1" unicode="📑" horiz-adv-x="580" d="M515 850q19 0 34.5 -15t15.5 -35v-850l-150 180v620q0 20 -15.5 35t-34.5 15h-100q0 50 40 50h210zM265 700q19 0 34.5 -15t15.5 -35v-800l-150 180l-150 -180v800q0 50 40 50h210z"/>
    <glyph glyph-name="u1F4D5" unicode="📕" horiz-adv-x="730" d="M697 594q18 -8 18 -28v-562q0 -14 -12.5 -25t-27.5 -11q-46 0 -46 36v522q0 12 -12 18l-404 216q-31 10 -68 -10q-44 -20 -56 -44l408 -228q18 -8 18 -28v-550q0 -22 -18 -28q-5 -4 -16 -4q-15 0 -20 4q-13 9 -209 130l-205 128q-26 18 -26 34l-6 524q0 27 14 52 q28 45 102 77t116 9z"/>
    <glyph glyph-name="u1F4D6" unicode="📖" horiz-adv-x="930" d="M355 238v-68l-200 80v68zM355 446v-68l-200 80v68zM465 -100q-1 0 -5 1t-5 1l-10 2l-398 160q-32 12 -32 46v640q0 30 22 42q22 16 46 6l382 -154l382 154q24 10 46 -6q22 -12 22 -42v-640q0 -34 -32 -46l-398 -160q-2 0 -5 -1q-4 -1 -5 -1t-5 -1t-5 -1zM415 4v560 l-320 128v-560zM835 132v560l-320 -128v-560zM775 318v-68l-200 -80v68zM775 526v-68l-200 -80v68z"/>
    <glyph glyph-name="u1F4DE" unicode="📞" horiz-adv-x="830" d="M476 290q162 162 118 206l-8 8q-31 31 -41 48q-11 19 -4 54q8 36 49 88q17 21 37 39q19 17 65 17q12 0 53 -31l47 -47q48 -48 -6 -194t-204 -294q-150 -150 -295 -205t-193 -7l-24 24l-24 23q-4 5 -18 24q-11 16 -12.5 27.5t1.5 33.5q2 19 15 35q16 20 51.5 47t56.5 37 q27 13 54 2q26 -11 35 -18q12 -10 39 -37q44 -44 208 120z"/>
    <glyph glyph-name="u1F4E3" unicode="📣" horiz-adv-x="890" d="M873 242q9 -120 -39 -140q-28 -12 -61 3q-36 16 -65 40q-37 28 -106.5 42t-141.5 7q-26 -4 -41.5 -18t-6.5 -38q26 -65 46 -108q4 -10 24 -22q19 -12 24 -20q13 -34 -22 -46q-45 -20 -102 -40q-30 -10 -54 42q-23 56 -58 132q-6 13 -34 17q-27 4 -46 31l-20 -7 q-14 -5 -19 -6.5t-16 -3.5t-18 -0.5t-17 5t-22 10.5q-40 24 -54 60q-16 30 -5 79q11 47 43 61q126 52 213 108q84 54 124 103q34 42 59 92q22 44 25 78q7 76 51 95q48 19 130 -70t142 -228q58 -137 67 -258zM778 200q9 5 10 38q2 38 -11 98q-27 133 -108 251q-40 58 -67 84 q-29 27 -36 23q-9 -5 -10 -42q-2 -40 10 -105q25 -141 108 -252q44 -57 68 -76q29 -23 36 -19z"/>
    <glyph glyph-name="u1F4E4" unicode="📤" d="M515 776l260 -244h-164v-256h-190v256h-166zM983 198q16 -9 26.5 -30t3.5 -42l-28 -154q-4 -19 -21.5 -32.5t-40.5 -13.5h-816q-23 0 -40.5 13.5t-21.5 32.5l-28 154q-10 48 32 72l158 108h98l-170 -130h178q7 0 12 -8l40 -110h300l40 110q8 8 12 8h178l-170 130h98z"/>
    <glyph glyph-name="u1F4E5" unicode="📥" d="M983 198q16 -9 26.5 -30t3.5 -42l-28 -154q-4 -19 -21.5 -32.5t-40.5 -13.5h-816q-23 0 -40.5 13.5t-21.5 32.5l-28 154q-10 48 32 72l158 108h98l-170 -130h178q7 0 12 -8l40 -110h300l40 110q8 8 12 8h178l-170 130h98zM775 520l-260 -244l-260 244h166v256h190v-256 h164z"/>
    </font>
</defs>
</svg>
